Поиск

(Latin Jazz, Bossa Nova) Charlie Byrd - Byrd By The Sea - 1974, FLAC (tracks+.cue), lossless

Треклист:
Charlie Byrd - Byrd By The Sea Жанр: Latin Jazz, Bossa Nova
Дата записи: 1974
Дата выпуска: 2000
Производитель диска: Fantasy 025218245722
Аудио кодек: FLAC
Тип рипа: tracks+.cue
Битрейт: lossless
Обложки: 300 dpi, jpg
Продолжительность: 01:10:43
Источник: Sarchiapone
Треклист:
01. Wave (5:10)
02. I'm Coming Virginia (5:21)
03. Killing Me Softly With His Song (5:06)
04. Fantasy In B Minor (5:53)
05. Salty Dog (5:46)
06. Chiquilin De Bachin (4:26)
07. Norwegian Wood (6:14)
08. Ela (5:04)
09. Cherry (5:03)
10. The Way We Were (3:12)
11. Concerto In G (4:44)
12. Love Is In The Air (3:41)
13. Meditation (4:00)
14. This Can't Be Love (3:15)
15. It Don't Mean A Thing (If It Ain't Got That Swing) (3:49)
Состав:
Charlie Byrd - Guitar
Joe Byrd - Bass (Electric), Bass (Acoustic)
Bertell Knox - Drums
Аудио сэмплы:
 
Отчёт ЕАС
Exact Audio Copy V0.99 prebeta 5 from 4. May 2009
EAC extraction logfile from 6. December 2009, 20:59
Charlie Byrd / Byrd By The Sea
Used drive : PLEXTOR CD-R PREMIUM2 Adapter: 1 ID: 1
Read mode : Secure
Utilize accurate stream : Yes
Defeat audio cache : Yes
Make use of C2 pointers : No
Read offset correction : 30
Overread into Lead-In and Lead-Out : No
Fill up missing offset samples with silence : Yes
Delete leading and trailing silent blocks : No
Null samples used in CRC calculations : Yes
Used interface : Installed external ASPI interface
Gap handling : Appended to previous track
Used output format : User Defined Encoder
Selected bitrate : 32 kBit/s
Quality : High
Add ID3 tag : No
Command line compressor : C:\Programmi\FLAC\flac.exe
Additional command line options : -8 -V -T "ARTIST=%a" -T "TITLE=%t" -T "ALBUM=%g" -T "DATE=%y" -T "TRACKNUMBER=%n" -T "GENRE=%m" -T "COMMENT=EAC FLAC -8" %s
TOC of the extracted CD
Track | Start | Length | Start sector | End sector
---------------------------------------------------------
1 | 0:00.00 | 5:09.67 | 0 | 23241
2 | 5:09.67 | 5:20.73 | 23242 | 47314
3 | 10:30.65 | 5:05.55 | 47315 | 70244
4 | 15:36.45 | 5:52.47 | 70245 | 96691
5 | 21:29.17 | 5:45.38 | 96692 | 122604
6 | 27:14.55 | 4:26.37 | 122605 | 142591
7 | 31:41.17 | 6:13.53 | 142592 | 170619
8 | 37:54.70 | 5:04.25 | 170620 | 193444
9 | 42:59.20 | 5:02.60 | 193445 | 216154
10 | 48:02.05 | 3:12.02 | 216155 | 230556
11 | 51:14.07 | 4:43.63 | 230557 | 251844
12 | 55:57.70 | 3:40.62 | 251845 | 268406
13 | 59:38.57 | 3:59.38 | 268407 | 286369
14 | 63:38.20 | 3:14.72 | 286370 | 300991
15 | 66:53.17 | 3:49.25 | 300992 | 318191
Track 1
Filename D:\My Rip\01 - Wave.wav
Pre-gap length 0:00:02.00
Peak level 94.5 %
Track quality 100.0 %
Test CRC 5E8B376C
Copy CRC 5E8B376C
Cannot be verified as accurate (confidence 1) [45EFDD6A], AccurateRip returned [FADDC2DF]
Copy OK
Track 2
Filename D:\My Rip\02 - I'm Coming Virginia.wav
Pre-gap length 0:00:01.80
Peak level 94.5 %
Track quality 100.0 %
Test CRC DC6E55AE
Copy CRC DC6E55AE
Cannot be verified as accurate (confidence 1) [27218915], AccurateRip returned [7FF2F754]
Copy OK
Track 3
Filename D:\My Rip\03 - Killing Me Softly With His Song.wav
Pre-gap length 0:00:02.57
Peak level 94.3 %
Track quality 100.0 %
Test CRC 292A38E9
Copy CRC 292A38E9
Cannot be verified as accurate (confidence 1) [FA217A38], AccurateRip returned [134D50A3]
Copy OK
Track 4
Filename D:\My Rip\04 - Fantasy In B Minor.wav
Pre-gap length 0:00:02.24
Peak level 94.3 %
Track quality 99.9 %
Test CRC A57D4053
Copy CRC A57D4053
Cannot be verified as accurate (confidence 1) [8C297091], AccurateRip returned [D0A95478]
Copy OK
Track 5
Filename D:\My Rip\05 - Salty Dog.wav
Pre-gap length 0:00:02.42
Peak level 93.8 %
Track quality 100.0 %
Test CRC F4877A64
Copy CRC F4877A64
Cannot be verified as accurate (confidence 1) [C5AE472B], AccurateRip returned [00DD33BE]
Copy OK
Track 6
Filename D:\My Rip\06 - Chiquilin De Bachin.wav
Pre-gap length 0:00:02.33
Peak level 94.4 %
Track quality 100.0 %
Test CRC 98C9110A
Copy CRC 98C9110A
Cannot be verified as accurate (confidence 1) [7F357FAC], AccurateRip returned [632698B2]
Copy OK
Track 7
Filename D:\My Rip\07 - Norwegian Wood.wav
Pre-gap length 0:00:02.73
Peak level 94.2 %
Track quality 100.0 %
Test CRC 2B8CD46E
Copy CRC 2B8CD46E
Cannot be verified as accurate (confidence 1) [1E248F23], AccurateRip returned [CE853570]
Copy OK
Track 8
Filename D:\My Rip\08 - Ela.wav
Pre-gap length 0:00:02.17
Peak level 94.1 %
Track quality 100.0 %
Test CRC 563C6B55
Copy CRC 563C6B55
Cannot be verified as accurate (confidence 1) [1DCF46B1], AccurateRip returned [03BABD46]
Copy OK
Track 9
Filename D:\My Rip\09 - Cherry.wav
Pre-gap length 0:00:01.80
Peak level 94.1 %
Track quality 100.0 %
Test CRC 7BA94CA7
Copy CRC 7BA94CA7
Cannot be verified as accurate (confidence 1) [71B18796], AccurateRip returned [7533822B]
Copy OK
Track 10
Filename D:\My Rip\10 - The Way We Were.wav
Pre-gap length 0:00:02.20
Peak level 94.4 %
Track quality 100.0 %
Test CRC 9C090EC0
Copy CRC 9C090EC0
Cannot be verified as accurate (confidence 1) [3FCD2C56], AccurateRip returned [FF43E3AB]
Copy OK
Track 11
Filename D:\My Rip\11 - Concerto In G.wav
Pre-gap length 0:00:02.46
Peak level 94.4 %
Track quality 100.0 %
Test CRC 130D6F81
Copy CRC 130D6F81
Cannot be verified as accurate (confidence 1) [E189163B], AccurateRip returned [0118B6F5]
Copy OK
Track 12
Filename D:\My Rip\12 - Love Is In The Air.wav
Pre-gap length 0:00:02.60
Peak level 93.3 %
Track quality 99.9 %
Test CRC 4A751CE2
Copy CRC 4A751CE2
Cannot be verified as accurate (confidence 1) [83208EE1], AccurateRip returned [52CE4AD2]
Copy OK
Track 13
Filename D:\My Rip\13 - Meditation.wav
Pre-gap length 0:00:01.20
Peak level 94.4 %
Track quality 100.0 %
Test CRC C94E14F6
Copy CRC C94E14F6
Cannot be verified as accurate (confidence 1) [77524974], AccurateRip returned [569A5F41]
Copy OK
Track 14
Filename D:\My Rip\14 - This Can't Be Love.wav
Pre-gap length 0:00:01.64
Peak level 94.5 %
Track quality 100.0 %
Test CRC 940E9EF4
Copy CRC 940E9EF4
Cannot be verified as accurate (confidence 1) [F93C6EDA], AccurateRip returned [3AC165D3]
Copy OK
Track 15
Filename D:\My Rip\15 - It Don't Mean A Thing (If It Ain't Got That Swing).wav
Pre-gap length 0:00:03.00
Peak level 94.3 %
Track quality 100.0 %
Test CRC AE829AAD
Copy CRC AE829AAD
Cannot be verified as accurate (confidence 1) [8A4B9E5F], AccurateRip returned [378E8F76]
Copy OK
No tracks could be verified as accurate
You may have a different pressing from the one(s) in the database
No errors occurred
End of status report
 
CUE
REM GENRE Jazz
REM DATE 1974
REM DISCID D210920F
REM COMMENT "ExactAudioCopy v0.99pb5"
PERFORMER "Charlie Byrd"
TITLE "Byrd By The Sea"
FILE "01 - Wave.wav" WAVE
TRACK 01 AUDIO
TITLE "Wave"
PERFORMER "Charlie Byrd"
INDEX 01 00:00:00
TRACK 02 AUDIO
TITLE "I'm Coming Virginia"
PERFORMER "Charlie Byrd"
INDEX 00 05:08:07
FILE "02 - I'm Coming Virginia.wav" WAVE
INDEX 01 00:00:00
TRACK 03 AUDIO
TITLE "Killing Me Softly With His Song"
PERFORMER "Charlie Byrd"
INDEX 00 05:18:30
FILE "03 - Killing Me Softly With His Song.wav" WAVE
INDEX 01 00:00:00
TRACK 04 AUDIO
TITLE "Fantasy In B Minor"
PERFORMER "Charlie Byrd"
INDEX 00 05:03:37
FILE "04 - Fantasy In B Minor.wav" WAVE
INDEX 01 00:00:00
TRACK 05 AUDIO
TITLE "Salty Dog"
PERFORMER "Charlie Byrd"
INDEX 00 05:50:15
FILE "05 - Salty Dog.wav" WAVE
INDEX 01 00:00:00
TRACK 06 AUDIO
TITLE "Chiquilin De Bachin"
PERFORMER "Charlie Byrd"
INDEX 00 05:43:13
FILE "06 - Chiquilin De Bachin.wav" WAVE
INDEX 01 00:00:00
TRACK 07 AUDIO
TITLE "Norwegian Wood"
PERFORMER "Charlie Byrd"
INDEX 00 04:23:57
FILE "07 - Norwegian Wood.wav" WAVE
INDEX 01 00:00:00
TRACK 08 AUDIO
TITLE "Ela"
PERFORMER "Charlie Byrd"
INDEX 00 06:11:40
FILE "08 - Ela.wav" WAVE
INDEX 01 00:00:00
TRACK 09 AUDIO
TITLE "Cherry"
PERFORMER "Charlie Byrd"
INDEX 00 05:02:40
FILE "09 - Cherry.wav" WAVE
INDEX 01 00:00:00
TRACK 10 AUDIO
TITLE "The Way We Were"
PERFORMER "Charlie Byrd"
INDEX 00 05:00:45
FILE "10 - The Way We Were.wav" WAVE
INDEX 01 00:00:00
TRACK 11 AUDIO
TITLE "Concerto In G"
PERFORMER "Charlie Byrd"
INDEX 00 03:09:42
FILE "11 - Concerto In G.wav" WAVE
INDEX 01 00:00:00
TRACK 12 AUDIO
TITLE "Love Is In The Air"
PERFORMER "Charlie Byrd"
INDEX 00 04:41:18
FILE "12 - Love Is In The Air.wav" WAVE
INDEX 01 00:00:00
TRACK 13 AUDIO
TITLE "Meditation"
PERFORMER "Charlie Byrd"
INDEX 00 03:39:47
FILE "13 - Meditation.wav" WAVE
INDEX 01 00:00:00
TRACK 14 AUDIO
TITLE "This Can't Be Love"
PERFORMER "Charlie Byrd"
INDEX 00 03:57:65
FILE "14 - This Can't Be Love.wav" WAVE
INDEX 01 00:00:00
TRACK 15 AUDIO
TITLE "It Don't Mean A Thing (If It Ain't Got That Swing)"
PERFORMER "Charlie Byrd"
INDEX 00 03:11:72
FILE "15 - It Don't Mean A Thing (If It Ain't Got That Swing).wav" WAVE
INDEX 01 00:00:00
 
Спектр
По всем вопросам пишите личное сообщение пользователю M0p94ok.
11:07
292
Нет комментариев. Ваш будет первым!