Поиск

(Latin Jazz / Bossa Nova) Lalo Schifrin - Brazilian Jazz - 2000, FLAC (tracks+.cue), lossless

(Latin Jazz / Bossa Nova) Lalo Schifrin - Brazilian Jazz - 2000, FLAC (tracks+.cue), lossless
Треклист:
Lalo Schifrin - Brazilian Jazz
Жанр: Latin Jazz / Bossa Nova
Год выпуска : 2000
Лейбл : Aleph Records
Аудио кодек: FLAC
Тип рипа: tracks+.cue
Битрейт аудио: lossless
Продолжительность: 00:37:37
Рип: mx204 - What CD


01. O Amor E A Rosa (3:33)
02. Boato (Bistro) (2:27)
03. Chora Tua Tristeza (2:39)
04. Poema Do Adeus (3:19)
05. Apito No Samba (2:51)
06. Chega De Saudade (5:20)
07. Bossa Em Nova York (1:53)
08. O Menino Desce O Morro (2:28)
09. Menina Feia (2:25)
10. Ouça (3:57)
11. Samba De Uma Nota So (3:45)
12. Patinho Feio (3:02)

 
EAC
Exact Audio Copy V0.99 prebeta 4 from 23. January 2008
EAC extraction logfile from 9. May 2009, 15:51
Lalo Schifrin / Brazilian Jazz
Used drive : TSSTcorpCD/DVDW TS-H552L Adapter: 5 ID: 0
Read mode : Secure
Utilize accurate stream : Yes
Defeat audio cache : Yes
Make use of C2 pointers : No
Read offset correction : 6
Overread into Lead-In and Lead-Out : No
Fill up missing offset samples with silence : Yes
Delete leading and trailing silent blocks : No
Null samples used in CRC calculations : Yes
Used interface : Native Win32 interface for Win NT & 2000
Gap handling : Appended to previous track
Used output format : User Defined Encoder
Selected bitrate : 128 kBit/s
Quality : High
Add ID3 tag : No
Command line compressor : C:\Program Files\Exact Audio Copy\FLAC\FLAC.EXE
Additional command line options : -V -8 -T "artist=%a" -T "title=%t" -T "album=%g" -T "date=%y" -T "tracknumber=%n" -T "genre=%m" %s
TOC of the extracted CD
Track | Start | Length | Start sector | End sector
---------------------------------------------------------
1 | 0:00.00 | 3:32.50 | 0 | 15949
2 | 3:32.50 | 2:26.45 | 15950 | 26944
3 | 5:59.20 | 2:38.55 | 26945 | 38849
4 | 8:38.00 | 3:19.32 | 38850 | 53806
5 | 11:57.32 | 2:50.63 | 53807 | 66619
6 | 14:48.20 | 5:19.50 | 66620 | 90594
7 | 20:07.70 | 1:52.59 | 90595 | 99053
8 | 22:00.54 | 2:28.26 | 99054 | 110179
9 | 24:29.05 | 2:25.25 | 110180 | 121079
10 | 26:54.30 | 3:56.57 | 121080 | 138836
11 | 30:51.12 | 3:44.58 | 138837 | 155694
12 | 34:35.70 | 3:01.47 | 155695 | 169316
Track 1
Filename C:\RIP\Lalo Schifrin - 2000 - Brazilian Jazz\01 - O Amor E A Rosa.wav
Pre-gap length 0:00:02.00
Peak level 99.9 %
Track quality 100.0 %
Test CRC 26A282F9
Copy CRC 26A282F9
Track not present in AccurateRip database
Copy OK
Track 2
Filename C:\RIP\Lalo Schifrin - 2000 - Brazilian Jazz\02 - Boato (Bistro).wav
Peak level 99.9 %
Track quality 100.0 %
Test CRC 57276CA1
Copy CRC 57276CA1
Track not present in AccurateRip database
Copy OK
Track 3
Filename C:\RIP\Lalo Schifrin - 2000 - Brazilian Jazz\03 - Chora Tua Tristeza.wav
Peak level 99.9 %
Track quality 99.9 %
Test CRC 48254BC1
Copy CRC 48254BC1
Track not present in AccurateRip database
Copy OK
Track 4
Filename C:\RIP\Lalo Schifrin - 2000 - Brazilian Jazz\04 - Poema Do Adeus.wav
Peak level 99.9 %
Track quality 100.0 %
Test CRC 39EE6657
Copy CRC 39EE6657
Track not present in AccurateRip database
Copy OK
Track 5
Filename C:\RIP\Lalo Schifrin - 2000 - Brazilian Jazz\05 - Apito No Samba (2).wav
Peak level 99.9 %
Track quality 100.0 %
Test CRC 046CCA00
Copy CRC 046CCA00
Track not present in AccurateRip database
Copy OK
Track 6
Filename C:\RIP\Lalo Schifrin - 2000 - Brazilian Jazz\06 - Chega De Saudade (2).wav
Peak level 99.9 %
Track quality 100.0 %
Test CRC F587B58B
Copy CRC F587B58B
Track not present in AccurateRip database
Copy OK
Track 7
Filename C:\RIP\Lalo Schifrin - 2000 - Brazilian Jazz\07 - Bossa Em Nova York (2).wav
Peak level 99.9 %
Track quality 100.0 %
Test CRC 86E0E21D
Copy CRC 86E0E21D
Track not present in AccurateRip database
Copy OK
Track 8
Filename C:\RIP\Lalo Schifrin - 2000 - Brazilian Jazz\08 - O Menino Desce O Morro.wav
Peak level 99.9 %
Track quality 100.0 %
Test CRC 9E730094
Copy CRC 9E730094
Track not present in AccurateRip database
Copy OK
Track 9
Filename C:\RIP\Lalo Schifrin - 2000 - Brazilian Jazz\09 - Menina Feia.wav
Peak level 99.9 %
Track quality 100.0 %
Test CRC 4ADB7467
Copy CRC 4ADB7467
Track not present in AccurateRip database
Copy OK
Track 10
Filename C:\RIP\Lalo Schifrin - 2000 - Brazilian Jazz\10 - Ouзa.wav
Peak level 99.9 %
Track quality 99.9 %
Test CRC 1C9D1BE3
Copy CRC 1C9D1BE3
Track not present in AccurateRip database
Copy OK
Track 11
Filename C:\RIP\Lalo Schifrin - 2000 - Brazilian Jazz\11 - Samba De Uma Nota So.wav
Peak level 99.9 %
Track quality 99.9 %
Test CRC 0C35763B
Copy CRC 0C35763B
Accurately ripped (confidence 1) [6A9C2D41]
Copy OK
Track 12
Filename C:\RIP\Lalo Schifrin - 2000 - Brazilian Jazz\12 - Patinho Feio.wav
Peak level 99.9 %
Track quality 100.0 %
Test CRC E9460998
Copy CRC E9460998
Accurately ripped (confidence 1) [945E603D]
Copy OK
2 track(s) accurately ripped
0 track(s) not present in the AccurateRip database
Some tracks could not be verified as accurate
No errors occurred
End of status report
 
CUE
REM GENRE jazz
REM DATE 2000
REM DISCID 8C08D10C
REM COMMENT "ExactAudioCopy v0.99pb4"
PERFORMER "Lalo Schifrin"
TITLE "Brazilian Jazz"
FILE "01 - O Amor E A Rosa.wav" WAVE
TRACK 01 AUDIO
INDEX 01 00:00:00
FILE "02 - Boato (Bistro).wav" WAVE
TRACK 02 AUDIO
INDEX 01 00:00:00
FILE "03 - Chora Tua Tristeza.wav" WAVE
TRACK 03 AUDIO
INDEX 01 00:00:00
FILE "04 - Poema Do Adeus.wav" WAVE
TRACK 04 AUDIO
INDEX 01 00:00:00
FILE "05 - Apito No Samba.wav" WAVE
TRACK 05 AUDIO
INDEX 01 00:00:00
FILE "06 - Chega De Saudade.wav" WAVE
TRACK 06 AUDIO
INDEX 01 00:00:00
FILE "07 - Bossa Em Nova York.wav" WAVE
TRACK 07 AUDIO
INDEX 01 00:00:00
FILE "08 - O Menino Desce O Morro.wav" WAVE
TRACK 08 AUDIO
INDEX 01 00:00:00
FILE "09 - Menina Feia.wav" WAVE
TRACK 09 AUDIO
INDEX 01 00:00:00
FILE "10 - Ouca.wav" WAVE
TRACK 10 AUDIO
INDEX 01 00:00:00
FILE "11 - Samba De Uma Nota So.wav" WAVE
TRACK 11 AUDIO
INDEX 01 00:00:00
FILE "12 - Patinho Feio.wav" WAVE
TRACK 12 AUDIO
INDEX 01 00:00:00
 
Audiochecker
Started at: пятница, 29. 01. 2010. - 12:11.03
12 files found
01 -===- C:\Downloads\Music\Джаз\Lalo Schifrin - Brazilian Jazz - 2000\01. O Amor E A Rosa.flac
Extracted successfully
Conclusion: This track looks like CDDA with probability 100%
Tempfile successfully deleted.
02 -===- C:\Downloads\Music\Джаз\Lalo Schifrin - Brazilian Jazz - 2000\02. Boato (Bistro).flac
Extracted successfully
Conclusion: This track looks like CDDA with probability 100%
Tempfile successfully deleted.
03 -===- C:\Downloads\Music\Джаз\Lalo Schifrin - Brazilian Jazz - 2000\03. Chora Tua Tristeza.flac
Extracted successfully
Conclusion: This track looks like CDDA with probability 100%
Tempfile successfully deleted.
04 -===- C:\Downloads\Music\Джаз\Lalo Schifrin - Brazilian Jazz - 2000\04. Poema Do Adeus.flac
Extracted successfully
Conclusion: This track looks like CDDA with probability 100%
Tempfile successfully deleted.
05 -===- C:\Downloads\Music\Джаз\Lalo Schifrin - Brazilian Jazz - 2000\05. Apito No Samba.flac
Extracted successfully
Conclusion: This track looks like CDDA with probability 100%
Tempfile successfully deleted.
06 -===- C:\Downloads\Music\Джаз\Lalo Schifrin - Brazilian Jazz - 2000\06. Chega De Saudade.flac
Extracted successfully
Conclusion: This track looks like CDDA with probability 100%
Tempfile successfully deleted.
07 -===- C:\Downloads\Music\Джаз\Lalo Schifrin - Brazilian Jazz - 2000\07. Bossa Em Nova York.flac
Extracted successfully
Conclusion: This track looks like CDDA with probability 100%
Tempfile successfully deleted.
08 -===- C:\Downloads\Music\Джаз\Lalo Schifrin - Brazilian Jazz - 2000\08. O Menino Desce O Morro.flac
Extracted successfully
Conclusion: This track looks like CDDA with probability 100%
Tempfile successfully deleted.
09 -===- C:\Downloads\Music\Джаз\Lalo Schifrin - Brazilian Jazz - 2000\09. Menina Feia.flac
Extracted successfully
Conclusion: This track looks like CDDA with probability 100%
Tempfile successfully deleted.
10 -===- C:\Downloads\Music\Джаз\Lalo Schifrin - Brazilian Jazz - 2000\10. Ouca.flac
Extracted successfully
Conclusion: This track looks like CDDA with probability 100%
Tempfile successfully deleted.
11 -===- C:\Downloads\Music\Джаз\Lalo Schifrin - Brazilian Jazz - 2000\11. Samba De Uma Nota So.flac
Extracted successfully
Conclusion: This track looks like CDDA with probability 100%
Tempfile successfully deleted.
12 -===- C:\Downloads\Music\Джаз\Lalo Schifrin - Brazilian Jazz - 2000\12. Patinho Feio.flac
Extracted successfully
Conclusion: This track looks like CDDA with probability 100%
Tempfile successfully deleted.
Finished at: пятница, 29. 01. 2010. - 12:18.22 (operation time: 0:07.19)
12:08
350
Нет комментариев. Ваш будет первым!