Поиск

(Latin Jazz, Bossa Nova) Charlie Byrd Trio and Woodwinds - Byrd In The Wind - 1959, FLAC (tracks+.cue), lossless

Треклист:
Charlie Byrd Trio and Woodwinds - Byrd In The Wind Жанр: Latin Jazz, Bossa Nova
Дата записи: 1959
Дата выпуска: 2002
Производитель диска: Riverside (OJC 1086)
Аудио кодек: FLAC
Тип рипа: tracks+.cue
Битрейт: lossless
Обложки: 300 dpi, jpg
Продолжительность: 37:53
Источник: Sarchiapone
Треклист:
01. Swing (3:22)
02. You'd Be So Nice To Come Home To (2:50)
03. Showboat Shuffle (3:58)
04. Love Letters (3:00)
05. Cross Your Heart (2:18)
06. Keter's Dirty Blues (4:11)
07. You're A Sweetheart (2:32)
08. Stars Fell On Alabama (3:16)
09. You Came A Long Way From St. Louis (3:30)
10. Wait Till You See Her (2:54)
11. Georgia On My Mind (3:09)
12. Copacabana (2:54)
Состав:
Charlie Byrd - Guitar
Keter Betts - Bass
Ginny Byrd - Vocals
Buck Hill - Sax (Tenor)
Bertell Knox - Drums
Kenneth Pasmanick - Bassoon
Richard White - Oboe
Аудио сэмплы:
 
Отчёт ЕАС
Exact Audio Copy V0.99 prebeta 5 from 4. May 2009
EAC extraction logfile from 8. December 2009, 22:33
Charlie Byrd Trio & Woodwinds / Byrd In The Wind
Used drive : PLEXTOR CD-R PREMIUM2 Adapter: 1 ID: 1
Read mode : Secure
Utilize accurate stream : Yes
Defeat audio cache : Yes
Make use of C2 pointers : No
Read offset correction : 30
Overread into Lead-In and Lead-Out : No
Fill up missing offset samples with silence : Yes
Delete leading and trailing silent blocks : No
Null samples used in CRC calculations : Yes
Used interface : Installed external ASPI interface
Gap handling : Appended to previous track
Used output format : User Defined Encoder
Selected bitrate : 32 kBit/s
Quality : High
Add ID3 tag : No
Command line compressor : C:\Programmi\FLAC\flac.exe
Additional command line options : -8 -V -T "ARTIST=%a" -T "TITLE=%t" -T "ALBUM=%g" -T "DATE=%y" -T "TRACKNUMBER=%n" -T "GENRE=%m" -T "COMMENT=EAC FLAC -8" %s
TOC of the extracted CD
Track | Start | Length | Start sector | End sector
---------------------------------------------------------
1 | 0:00.00 | 3:22.35 | 0 | 15184
2 | 3:22.35 | 2:50.10 | 15185 | 27944
3 | 6:12.45 | 3:57.43 | 27945 | 45762
4 | 10:10.13 | 3:00.22 | 45763 | 59284
5 | 13:10.35 | 2:17.63 | 59285 | 69622
6 | 15:28.23 | 4:11.05 | 69623 | 88452
7 | 19:39.28 | 2:31.67 | 88453 | 99844
8 | 22:11.20 | 3:15.53 | 99845 | 114522
9 | 25:26.73 | 3:30.15 | 114523 | 130287
10 | 28:57.13 | 2:53.65 | 130288 | 143327
11 | 31:51.03 | 3:08.47 | 143328 | 157474
12 | 34:59.50 | 2:53.63 | 157475 | 170512
Track 1
Filename D:\My Rip\01 - Swing.wav
Pre-gap length 0:00:02.00
Peak level 86.2 %
Track quality 100.0 %
Test CRC BD0DD2AE
Copy CRC BD0DD2AE
Accurately ripped (confidence 2) [40A7D6DF]
Copy OK
Track 2
Filename D:\My Rip\02 - You'd Be So Nice To Come Home To.wav
Pre-gap length 0:00:02.60
Peak level 99.1 %
Track quality 100.0 %
Test CRC 5A554E51
Copy CRC 5A554E51
Accurately ripped (confidence 2) [2D00CB15]
Copy OK
Track 3
Filename D:\My Rip\03 - Showboat Shuffle.wav
Pre-gap length 0:00:02.93
Peak level 100.0 %
Track quality 100.0 %
Test CRC 13FFE9ED
Copy CRC 13FFE9ED
Accurately ripped (confidence 2) [C3D1619F]
Copy OK
Track 4
Filename D:\My Rip\04 - Love Letters.wav
Pre-gap length 0:00:02.50
Peak level 98.5 %
Track quality 99.9 %
Test CRC 85A7A85C
Copy CRC 85A7A85C
Accurately ripped (confidence 2) [B4018A12]
Copy OK
Track 5
Filename D:\My Rip\05 - Cross Your Heart.wav
Pre-gap length 0:00:02.46
Peak level 98.7 %
Track quality 100.0 %
Test CRC E6837A03
Copy CRC E6837A03
Accurately ripped (confidence 2) [7BE6DCD1]
Copy OK
Track 6
Filename D:\My Rip\06 - Keter's Dirty Blues.wav
Pre-gap length 0:00:02.97
Peak level 99.9 %
Track quality 100.0 %
Test CRC E3AB9F75
Copy CRC E3AB9F75
Accurately ripped (confidence 2) [34E2AF76]
Copy OK
Track 7
Filename D:\My Rip\07 - You're A Sweetheart.wav
Pre-gap length 0:00:03.10
Peak level 98.4 %
Track quality 100.0 %
Test CRC 5646F34F
Copy CRC 5646F34F
Accurately ripped (confidence 2) [03168CAE]
Copy OK
Track 8
Filename D:\My Rip\08 - Stars Fell On Alabama.wav
Pre-gap length 0:00:02.89
Peak level 84.8 %
Track quality 100.0 %
Test CRC FB242783
Copy CRC FB242783
Accurately ripped (confidence 2) [DE1B8E63]
Copy OK
Track 9
Filename D:\My Rip\09 - You Came A Long Way From St. Louis.wav
Pre-gap length 0:00:03.17
Peak level 99.3 %
Track quality 99.9 %
Test CRC D87EB584
Copy CRC D87EB584
Accurately ripped (confidence 2) [66A826DA]
Copy OK
Track 10
Filename D:\My Rip\10 - Wait Till You See Her.wav
Pre-gap length 0:00:02.70
Peak level 63.3 %
Track quality 100.0 %
Test CRC B8F65CF4
Copy CRC B8F65CF4
Accurately ripped (confidence 2) [813CE9A7]
Copy OK
Track 11
Filename D:\My Rip\11 - Georgia On My Mind.wav
Pre-gap length 0:00:02.90
Peak level 99.6 %
Track quality 99.9 %
Test CRC A91F7D7E
Copy CRC A91F7D7E
Accurately ripped (confidence 2) [02AA8899]
Copy OK
Track 12
Filename D:\My Rip\12 - Copacabana.wav
Pre-gap length 0:00:03.82
Peak level 100.0 %
Track quality 100.0 %
Test CRC CDC95CCB
Copy CRC CDC95CCB
Accurately ripped (confidence 2) [88858608]
Copy OK
All tracks accurately ripped
No errors occurred
End of status report
 
CUE
REM GENRE Jazz
REM DATE 1959
REM DISCID 8808E10C
REM COMMENT "ExactAudioCopy v0.99pb5"
PERFORMER "Charlie Byrd Trio & Woodwinds"
TITLE "Byrd In The Wind"
FILE "01 - Swing.wav" WAVE
TRACK 01 AUDIO
TITLE "Swing"
PERFORMER "Charlie Byrd Trio & Woodwinds"
INDEX 01 00:00:00
TRACK 02 AUDIO
TITLE "You'd Be So Nice To Come Home To"
PERFORMER "Charlie Byrd Trio & Woodwinds"
INDEX 00 03:19:65
FILE "02 - You'd Be So Nice To Come Home To.wav" WAVE
INDEX 01 00:00:00
TRACK 03 AUDIO
TITLE "Showboat Shuffle"
PERFORMER "Charlie Byrd Trio & Woodwinds"
INDEX 00 02:47:15
FILE "03 - Showboat Shuffle.wav" WAVE
INDEX 01 00:00:00
TRACK 04 AUDIO
TITLE "Love Letters"
PERFORMER "Charlie Byrd Trio & Woodwinds"
INDEX 00 03:55:05
FILE "04 - Love Letters.wav" WAVE
INDEX 01 00:00:00
TRACK 05 AUDIO
TITLE "Cross Your Heart"
PERFORMER "Charlie Byrd Trio & Woodwinds"
INDEX 00 02:57:62
FILE "05 - Cross Your Heart.wav" WAVE
INDEX 01 00:00:00
TRACK 06 AUDIO
TITLE "Keter's Dirty Blues"
PERFORMER "Charlie Byrd Trio & Woodwinds"
INDEX 00 02:14:65
FILE "06 - Keter's Dirty Blues.wav" WAVE
INDEX 01 00:00:00
TRACK 07 AUDIO
TITLE "You're A Sweetheart"
PERFORMER "Charlie Byrd Trio & Woodwinds"
INDEX 00 04:07:72
FILE "07 - You're A Sweetheart.wav" WAVE
INDEX 01 00:00:00
TRACK 08 AUDIO
TITLE "Stars Fell On Alabama"
PERFORMER "Charlie Byrd Trio & Woodwinds"
INDEX 00 02:29:00
FILE "08 - Stars Fell On Alabama.wav" WAVE
INDEX 01 00:00:00
TRACK 09 AUDIO
TITLE "You Came A Long Way From St. Louis"
PERFORMER "Charlie Byrd Trio & Woodwinds"
INDEX 00 03:12:40
FILE "09 - You Came A Long Way From St. Louis.wav" WAVE
INDEX 01 00:00:00
TRACK 10 AUDIO
TITLE "Wait Till You See Her"
PERFORMER "Charlie Byrd Trio & Woodwinds"
INDEX 00 03:27:37
FILE "10 - Wait Till You See Her.wav" WAVE
INDEX 01 00:00:00
TRACK 11 AUDIO
TITLE "Georgia On My Mind"
PERFORMER "Charlie Byrd Trio & Woodwinds"
INDEX 00 02:50:72
FILE "11 - Georgia On My Mind.wav" WAVE
INDEX 01 00:00:00
TRACK 12 AUDIO
TITLE "Copacabana"
PERFORMER "Charlie Byrd Trio & Woodwinds"
INDEX 00 03:04:60
FILE "12 - Copacabana.wav" WAVE
INDEX 01 00:00:00
 
Спектр
По всем вопросам пишите личное сообщение пользователю M0p94ok.
11:09
389
Нет комментариев. Ваш будет первым!