Поиск

(Post-Bop, World Fusion) Mordy Ferber - Mr. X - 1995, FLAC (tracks+.cue), lossless

(Post-Bop, World Fusion) Mordy Ferber - Mr. X - 1995, FLAC (tracks+.cue), lossless
Треклист:
Mordy Ferber - Mr. X (1995)
Rock - Made In Israel (Каталог раздач)
Jazz - Made In Israel (Каталог раздач)
Жанр: Post-Bop, World Fusion
Страна: Israel - U.S.A.
Дата записи: Hillside Sound Studios, NJ January 10th & 11th, 1995
Дата выпуска: 1995
Производитель диска, номер, страна: Dutch East India Trading, NY, U.S.A. OZ009-2
Аудио кодек: FLAC
Тип рипа: (tracks + .cue)
Битрейт аудио: lossless
Включает: Full artwork
Продолжительность: 57:35
Источник: Моя коллекция
Риппер: Мой рип
Трэклист:
01 - Mr. X
02 - Zipora
03 - A Minor Tune
04 - Formerly With No One
05 - Fred Astaire In Chicago
06 - 21st Century
07 - Silence
All compositions written and arranged by Mordy Ferber except Silence - by Charlie Haden
Состав:
Jack DeJohnette - drums
Eddie Gomez - bass
Dave Leibman - soprano sax (4 - 7)
George Garzone - tenor sax (1, 3, 7)
Nana Vasconcelos - percussion
Brad Hatfield - piano
Mordy Ferber - classical, electric & synteiser guitars
Ссылки:
Offical Site
My Space
Allmusic
Rate Your Music
Другие издания:
2000 Ferbermusic 015095420527
2000 Half Note Records 4205
1993 Compendia Music Group 4205
1996 Half Note Records 1505
Родился в 1958 на севере Израиля, в 10 лет начал свою карьеру в качестве певца, выступая со своим трио на школьных концертах и разных событиях в своем городе, в 12 лет взял гитару и несколько формальных уроков у единственного преподавателя в своем городке, обучавшего только классике
До 17 лет играл в местных рок-группах, игравших каверы Led Zeppelin, Jimi Hendrix, Cream, the Beatles, Santana. Случайно услышал по радио запись Джанго Рейнхардта и был потрясен, после чего начал разыскивать его записи и самостоятельно изучать и пытаться играть их. Потом последовали записи Charlie Christian, Joe Pass, Wes Montgomery, Jim Hall. В 18 лет последовала служба в армии, гитаристом в армейском оркестре. После армии быстро стал одним из ведущих Израильских гитаристов, записываясь и выступая со многими местными звездами, олдновременно продолжая заниматься джазом и импровизацией, в 23 года переехал в Штаты и начал учиться в Беркли
 
Несколько слов на английском
"Ferber’s Mr. X makes manifest his deep commitment and his firm attitudes towards his music. The compositional lines are strong; the ballads are fresh; and, the guitar work throughout is outstanding." ~ Jazziz
"Though guitarist Mordy Ferber is one of those musician’s musicians'"a technically accomplished and versatile player who is known throughout the jazz community, but who remains relatively obscure among jazz listeners'"he has found the time to release a CD that showcases his talent in a wide-ranging array of styles. Actually, Being There was recorded in 1996, and it is just now making its way into the distribution channels on the Half Note label. Better late than never, that’s for sure. Perhaps Ferber was too busy with his behind-the-scenes work writing music for shows like The Sopranos, Everybody Loves Raymond or Six Feet Under, as he holds down a full-time job at New York University. Or perhaps his touring throughout the world, even in lesser-known venues in Greece and China, has put him behind in his self-promotion endeavors."
"On Being There, Mordy Ferber provides reason to make sure he’s included in the lists of jazz guitarists who not only have developed sounds of their own through deep personal experience and technical mastery, but also who have shown sufficient compositional imagination to make their own statement." ~ jazzreview.com
"Add Mordy Ferber to the list of notable guitarists in the jazz world today. This Israeli-born sensation displays readily apparent technical fortitude and, more importantly,a confident sense of when and how to flex his talent. Ferber is a player of considerable promise who blends irreverent energies and an angular, dare we say European?, harmonic sense into an overall jazz sans frontiers." ~ Jazziz
"New York guitarist-composer, Mordy Ferber, is a powerful, contemporary guitarist with an attitude, energy, and a pluck all his own. And with a batch of riveting originals and plenty of zing per string,Ferber is clearly his own man." ~ Jazz Times
"I love his sound and his feeling. He writes beautiful compositions. Mordy is committed to the highest level of quality and creativity. He’s not afraid to take risks." ~ Jack DeJohnette
Mordy Ferber is a rarity, a jazz musician from Israel who was able to develop a sound of his own. A singer as a child, Ferber originally learned the guitar so he could accompany himself. He had classical lessons and was interested in rock before he discovered jazz, starting with Django Reinhardt and eventually graduating to Charlie Christian, Wes Montgomery, Jim Hall and John Scofield among others. Ferber started working in the studios when he was 15 and appeared regularly on radio shows and television, performing in a wide variety of styles. In the Israeli Army for three years, Ferber toured the country as part of the military's entertainment unit. When he was 23, Ferber won a scholarship to the Berklee College Of Music which he graduated from in 1986. Since then he has freelanced in the U.S. and in Israel, recording All the Way To Sendai (which features among others Tiger Okoshi, Bob Mintzer and Miroslav Vitous) as a leader for Enja in 1990. ~ Scott Yanow, All Music Guide
 
EAC log
Exact Audio Copy V0.99 prebeta 4 from 23. January 2008
EAC extraction logfile from 26. January 2010, 10:28
Mordy Ferber / Mr. X
Used drive : HL-DT-STDVD-RAM GH22NP20 Adapter: 0 ID: 0
Read mode : Secure
Utilize accurate stream : Yes
Defeat audio cache : Yes
Make use of C2 pointers : No
Read offset correction : 102
Overread into Lead-In and Lead-Out : No
Fill up missing offset samples with silence : Yes
Delete leading and trailing silent blocks : No
Null samples used in CRC calculations : Yes
Used interface : Installed external ASPI interface
Gap handling : Appended to previous track
Used output format : User Defined Encoder
Selected bitrate : 320 kBit/s
Quality : High
Add ID3 tag : No
Command line compressor : C:\Program Files\Exact Audio Copy\Flac\flac.exe
Additional command line options : -V -8 -T "artist=%a" -T "title=%t" -T "album=%g" -T "date=%y" -T "tracknumber=%n" -T "genre=%m" %s
TOC of the extracted CD
Track | Start | Length | Start sector | End sector
---------------------------------------------------------
1 | 0:00.20 | 6:55.07 | 20 | 31151
2 | 6:55.27 | 6:11.40 | 31152 | 59016
3 | 13:06.67 | 7:58.20 | 59017 | 94886
4 | 21:05.12 | 11:18.68 | 94887 | 145804
5 | 32:24.05 | 7:04.00 | 145805 | 177604
6 | 39:28.05 | 13:07.37 | 177605 | 236666
7 | 52:35.42 | 4:59.58 | 236667 | 259149
Track 1
Filename D:\music\Musicgate's rips\Mordy Ferber - Mr. X (1995)\01 - Mr. X.wav
Pre-gap length 0:00:02.26
Peak level 99.9 %
Track quality 99.9 %
Test CRC 28834E4B
Copy CRC 28834E4B
Track not present in AccurateRip database
Copy OK
Track 2
Filename D:\music\Musicgate's rips\Mordy Ferber - Mr. X (1995)\02 - Zipora.wav
Peak level 69.1 %
Track quality 100.0 %
Test CRC A280D37C
Copy CRC A280D37C
Track not present in AccurateRip database
Copy OK
Track 3
Filename D:\music\Musicgate's rips\Mordy Ferber - Mr. X (1995)\03 - A Minor Tune.wav
Pre-gap length 0:00:00.05
Peak level 99.9 %
Track quality 100.0 %
Test CRC 23A0370F
Copy CRC 23A0370F
Track not present in AccurateRip database
Copy OK
Track 4
Filename D:\music\Musicgate's rips\Mordy Ferber - Mr. X (1995)\04 - Formerly With No One.wav
Peak level 99.9 %
Track quality 100.0 %
Test CRC 2B37ECD0
Copy CRC 2B37ECD0
Track not present in AccurateRip database
Copy OK
Track 5
Filename D:\music\Musicgate's rips\Mordy Ferber - Mr. X (1995)\05 - Fred Astaire In Chicago.wav
Peak level 100.0 %
Track quality 100.0 %
Test CRC A36FAF60
Copy CRC A36FAF60
Track not present in AccurateRip database
Copy OK
Track 6
Filename D:\music\Musicgate's rips\Mordy Ferber - Mr. X (1995)\06 - 21st Century.wav
Pre-gap length 0:00:02.20
Peak level 100.0 %
Track quality 100.0 %
Test CRC 0F7CA5EE
Copy CRC 0F7CA5EE
Track not present in AccurateRip database
Copy OK
Track 7
Filename D:\music\Musicgate's rips\Mordy Ferber - Mr. X (1995)\07 - Silence.wav
Pre-gap length 0:00:02.16
Peak level 99.9 %
Track quality 100.0 %
Test CRC DFF4DDC0
Copy CRC DFF4DDC0
Track not present in AccurateRip database
Copy OK
None of the tracks are present in the AccurateRip database
No errors occurred
End of status report
 
Tau analizer screenshoot
 
CUE
REM GENRE "Post Bop"
REM DATE 1995
REM DISCID 650D7F07
REM COMMENT "ExactAudioCopy v0.99pb4"
PERFORMER "Mordy Ferber"
TITLE "Mr. X"
FILE "Range.wav" WAVE
TRACK 01 AUDIO
TITLE "Mr. X"
PERFORMER "Mordy Ferber"
INDEX 00 00:00:00
INDEX 01 00:00:20
TRACK 02 AUDIO
TITLE "Zipora"
PERFORMER "Mordy Ferber"
INDEX 01 06:55:27
TRACK 03 AUDIO
TITLE "A Minor Tune"
PERFORMER "Mordy Ferber"
INDEX 00 13:06:63
INDEX 01 13:06:67
TRACK 04 AUDIO
TITLE "Formerly With No One"
PERFORMER "Mordy Ferber"
INDEX 01 21:05:12
TRACK 05 AUDIO
TITLE "Fred Astaire In Chicago"
PERFORMER "Mordy Ferber"
INDEX 01 32:24:05
TRACK 06 AUDIO
TITLE "21st Century"
PERFORMER "Mordy Ferber"
INDEX 00 39:25:65
INDEX 01 39:28:05
TRACK 07 AUDIO
TITLE "Silence"
PERFORMER "Mordy Ferber"
INDEX 00 52:33:30
INDEX 01 52:35:42
Я не сидирую все свои раздачи подолгу, только новые (до 3х первых сидов)
За своими раздачами не слежу, и старые топики не читаю - если нет сидов или раздача находится в архиве, пришлите письмо, и я вернусь
Предлагаю скачавшим максимально долго оставаться на раздаче - весь рейтинг будет ваш.
Заботьтесь о своем рейтинге - конвертируйте в мп3 и выкладывайте в соответствующем разделе
По всем вопросам пишите личное сообщение пользователю M0p94ok.
11:09
269
Нет комментариев. Ваш будет первым!