Поиск

(World Fusion, Ethnic Jazz, MPB) [CD] Toquinho - Minha Historia - 1997, FLAC (image+.cue), lossless

(World Fusion, Ethnic Jazz, MPB) [CD] Toquinho - Minha Historia - 1997, FLAC (image+.cue), lossless
Треклист:
.Toquinho
Minha Historia(Birth name: Antônio Pecci Filho / Compilations / 14 Sucessos).
.Жанр: World Fusion, Ethnic Jazz, MPB
Носитель: CD
Страна-производитель диска (релиза): Brazil
Год издания: 1997
Издатель (лейбл): Polygram
Номер по каталогу: 536 416-2
Страна исполнителя (группы): Brazil
Аудиокодек: FLAC (*.flac)
Тип рипа: image+.cue
Битрейт аудио: lossless
Продолжительность: 00:50:47
Источник (релизер): stas64
Наличие сканов в содержимом раздачи: да 600 dpi.
.
.Треклист:

01. Aquarela.
02. Escravo da Alegria.
03. Para Viver um Grande Amor - Tarde em Itapoa.
04. Samba Pra Vinicius - A Felicidade.
05. Coisas do Coracao.
06. Turbilhao.
07. Sonho Dourado.
08. Meu Irmao.
09. Pequeno Perfil de um Cidadao Comum.
10. Caso Serio.
11. Deixa Acontecer.
12. Ao Que Vai Chegar.
13. Voos da Vida.
14. Na Terra, No Ceu ou no Mar.
 
Booklet



 
Содержание индексной карты (.CUE)
REM GENRE MPB
REM DATE 1997
REM DISCID C90BE70E
REM COMMENT "ExactAudioCopy v1.0b3"
PERFORMER "Toquinho"
TITLE "Minha Historia"
FILE "Toquinho - Minha Historia.flac" WAVE
TRACK 01 AUDIO
TITLE "Aquarela"
PERFORMER "Toquinho"
INDEX 01 00:00:00
TRACK 02 AUDIO
TITLE "Escravo da Alegria"
PERFORMER "Toquinho"
INDEX 01 04:15:44
TRACK 03 AUDIO
TITLE "Para Viver um Grande Amor - Tarde em Itapoa"
PERFORMER "Toquinho"
INDEX 01 08:07:24
TRACK 04 AUDIO
TITLE "Samba Pra Vinicius - A Felicidade"
PERFORMER "Toquinho"
INDEX 00 12:50:18
INDEX 01 12:50:28
TRACK 05 AUDIO
TITLE "Coisas do Coracao"
PERFORMER "Toquinho"
INDEX 01 16:38:19
TRACK 06 AUDIO
TITLE "Turbilhao"
PERFORMER "Toquinho"
INDEX 00 21:10:40
INDEX 01 21:10:48
TRACK 07 AUDIO
TITLE "Sonho Dourado"
PERFORMER "Toquinho"
INDEX 00 24:36:61
INDEX 01 24:36:69
TRACK 08 AUDIO
TITLE "Meu Irmao"
PERFORMER "Toquinho"
INDEX 01 27:45:25
TRACK 09 AUDIO
TITLE "Pequeno Perfil de um Cidadao Comum"
PERFORMER "Toquinho"
INDEX 00 30:46:07
INDEX 01 30:46:13
TRACK 10 AUDIO
TITLE "Caso Serio"
PERFORMER "Toquinho"
INDEX 00 33:37:36
INDEX 01 33:37:41
TRACK 11 AUDIO
TITLE "Deixa Acontecer"
PERFORMER "Toquinho"
INDEX 01 37:31:54
TRACK 12 AUDIO
TITLE "Ao Que Vai Chegar"
PERFORMER "Toquinho"
INDEX 00 40:36:22
INDEX 01 40:36:32
TRACK 13 AUDIO
TITLE "Voos da Vida"
PERFORMER "Toquinho"
INDEX 00 43:46:08
INDEX 01 43:46:09
TRACK 14 AUDIO
TITLE "Na Terra, No Ceu ou no Mar"
PERFORMER "Toquinho"
INDEX 01 47:19:14
 
Лог проверки качества / CDDA 100%
-----------------------
DON'T MODIFY THIS FILE
-----------------------
PERFORMER: auCDtect Task Manager, ver. 1.5.1RC6 build 1.5.1.7
Copyright (c) 2008-2010 y-soft. All rights reserved
http://y-soft.org
ANALYZER: auCDtect: CD records authenticity detector, version 0.8.2
Copyright (c) 2004 Oleg Berngardt. All rights reserved.
Copyright (c) 2004 Alexander Djourik. All rights reserved.
FILE: Toquinho - Minha Historia.flac
Size: 299282977 Hash: 1F4E1C64F5C72F9D96BCA1C5492A58E2 Accuracy: -m0
Conclusion: CDDA 100%
Signature: 9227F876166C039C7838FCC9BC3E12E7F1E9E192
 
МОИ РАЗДАЧИ - МУЗЫКА: / MY DISTRIBUTION - MUSIC:
 
Rock music:
Прямые кликабельные ссылки на раздачи.
Direct clickable links to hand.



























 
Pop music:
Прямые кликабельные ссылки на раздачи.
Direct clickable links to hand.































 
Other music including Electronic and Soundtracks:
Прямые кликабельные ссылки на раздачи.
Direct clickable links to hand.

























20:43
392
Нет комментариев. Ваш будет первым!