Поиск

(ECM, Ethnic Fusion) [CD] Michel Benita Ethics - River Silver - 2016, FLAC (tracks+.cue), lossless

(ECM, Ethnic Fusion) [CD] Michel Benita Ethics - River Silver - 2016, FLAC (tracks+.cue), lossless
Треклист:
Michel Benita Ethics - River Silver
Жанр: Ethnic Fusion
Носитель: CD
Страна-производитель диска (релиза): Germany
Год издания: 2016
Издатель (лейбл): ECM
Номер по каталогу: ECM 2483
Аудиокодек: FLAC (*.flac)
Тип рипа: tracks+.cue
Битрейт аудио: lossless
Продолжительность: 00:49:27
Источник (релизер): jlgt
Наличие сканов в содержимом раздачи: да

Michel Benita - double bass
Matthieu Michel - flugelhorn
Mieko Miyazaki - koto
Eivind Aarset - guitar, electronics
Philippe Garcia - drums


01. Back From The Moon [05:49]
02. River Silver [04:37]
03. I See Altitudes [05:54]
04. Off The Coast [06:13]
05. Yeavering [03:46]
06. Toonari [05:58]
07. Hacihi Gatsu [04:43]
08. Lykken [06:02]
09. Snowed In [06:21]

 
Лог создания рипа
Exact Audio Copy V1.0 beta 3 from 29. August 2011
EAC extraction logfile from 9. February 2016, 1:15
Michel Benita, Ethics / River Silver [ECM 2483]
Used drive : PLEXTOR DVDR PX-L890SA Adapter: 5 ID: 1
Read mode : Secure
Utilize accurate stream : Yes
Defeat audio cache : Yes
Make use of C2 pointers : No
Read offset correction : 6
Overread into Lead-In and Lead-Out : No
Fill up missing offset samples with silence : Yes
Delete leading and trailing silent blocks : No
Null samples used in CRC calculations : Yes
Used interface : Native Win32 interface for Win NT & 2000
Gap handling : Appended to previous track
Used output format : User Defined Encoder
Selected bitrate : 128 kBit/s
Quality : High
Add ID3 tag : No
Command line compressor : C:\Program Files (x86)\Exact Audio Copy\FLAC\FLAC.EXE
Additional command line options : -8 -V -T "ARTIST=%artist%" -T "TITLE=%title%" -T "ALBUM=%albumtitle%" -T "DATE=%year%" -T "TRACKNUMBER=%tracknr%" -T "TOTALTRACKS=%numtracks%" -T "GENRE=%genre%" -T "ALBUMARTIST=%albumartist%" -T "ALBUM ARTIST=%albumartist%" -T "COMMENT=EAC Secure Mode, Test & Copy, AccurateRip, FLAC -8" %source%
TOC of the extracted CD
Track | Start | Length | Start sector | End sector
---------------------------------------------------------
1 | 0:00.00 | 5:49.39 | 0 | 26213
2 | 5:49.39 | 4:37.24 | 26214 | 47012
3 | 10:26.63 | 5:54.61 | 47013 | 73623
4 | 16:21.49 | 6:13.39 | 73624 | 101637
5 | 22:35.13 | 3:46.09 | 101638 | 118596
6 | 26:21.22 | 5:58.31 | 118597 | 145477
7 | 32:19.53 | 4:43.60 | 145478 | 166762
8 | 37:03.38 | 6:02.27 | 166763 | 193939
9 | 43:05.65 | 6:21.22 | 193940 | 222536
Track 1
Filename E:\01 - Back From The Moon.wav
Pre-gap length 0:00:02.00
Peak level 96.6 %
Extraction speed 3.7 X
Track quality 100.0 %
Test CRC D76C4F1A
Copy CRC D76C4F1A
Track not present in AccurateRip database
Copy OK
Track 2
Filename E:\02 - River Silver.wav
Peak level 96.7 %
Extraction speed 4.2 X
Track quality 100.0 %
Test CRC 95B0ADC7
Copy CRC 95B0ADC7
Track not present in AccurateRip database
Copy OK
Track 3
Filename E:\03 - I See Altitudes.wav
Peak level 96.6 %
Extraction speed 4.7 X
Track quality 100.0 %
Test CRC E68BD0AA
Copy CRC E68BD0AA
Track not present in AccurateRip database
Copy OK
Track 4
Filename E:\04 - Off The Coast.wav
Peak level 92.2 %
Extraction speed 5.2 X
Track quality 100.0 %
Test CRC A75DD5C0
Copy CRC A75DD5C0
Track not present in AccurateRip database
Copy OK
Track 5
Filename E:\05 - Yeavering.wav
Peak level 89.7 %
Extraction speed 4.2 X
Track quality 99.9 %
Test CRC F2474053
Copy CRC F2474053
Track not present in AccurateRip database
Copy OK
Track 6
Filename E:\06 - Toonari.wav
Peak level 96.6 %
Extraction speed 5.8 X
Track quality 100.0 %
Test CRC 373415CA
Copy CRC 373415CA
Track not present in AccurateRip database
Copy OK
Track 7
Filename E:\07 - Hacihi Gatsu.wav
Peak level 51.6 %
Extraction speed 6.0 X
Track quality 100.0 %
Test CRC 56BFBE49
Copy CRC 56BFBE49
Track not present in AccurateRip database
Copy OK
Track 8
Filename E:\08 - Lykken.wav
Peak level 91.9 %
Extraction speed 6.5 X
Track quality 100.0 %
Test CRC 1D20E862
Copy CRC 1D20E862
Track not present in AccurateRip database
Copy OK
Track 9
Filename E:\09 - Snowed In.wav
Peak level 96.6 %
Extraction speed 6.9 X
Track quality 100.0 %
Test CRC 10DD45F0
Copy CRC 10DD45F0
Track not present in AccurateRip database
Copy OK
None of the tracks are present in the AccurateRip database
No errors occurred
End of status report
==== Log checksum C7AB5EF10FD398BC7F19206F09A119ACFB046CB3B4A24CDE71BB9B594514AB30 ====
 
Содержание индексной карты (.CUE)
REM GENRE Jazz
REM DATE 2016
REM DISCID 800B9709
REM COMMENT "ExactAudioCopy v1.0b3"
PERFORMER "Michel Benita, Ethics"
TITLE "River Silver [ECM 2483]"
FILE "01 - Back From The Moon.wav" WAVE
TRACK 01 AUDIO
TITLE "Back From The Moon"
PERFORMER "Michel Benita, Ethics"
INDEX 01 00:00:00
FILE "02 - River Silver.wav" WAVE
TRACK 02 AUDIO
TITLE "River Silver"
PERFORMER "Michel Benita, Ethics"
INDEX 01 00:00:00
FILE "03 - I See Altitudes.wav" WAVE
TRACK 03 AUDIO
TITLE "I See Altitudes"
PERFORMER "Michel Benita, Ethics"
INDEX 01 00:00:00
FILE "04 - Off The Coast.wav" WAVE
TRACK 04 AUDIO
TITLE "Off The Coast"
PERFORMER "Michel Benita, Ethics"
INDEX 01 00:00:00
FILE "05 - Yeavering.wav" WAVE
TRACK 05 AUDIO
TITLE "Yeavering"
PERFORMER "Michel Benita, Ethics"
INDEX 01 00:00:00
FILE "06 - Toonari.wav" WAVE
TRACK 06 AUDIO
TITLE "Toonari"
PERFORMER "Michel Benita, Ethics"
INDEX 01 00:00:00
FILE "07 - Hacihi Gatsu.wav" WAVE
TRACK 07 AUDIO
TITLE "Hacihi Gatsu"
PERFORMER "Michel Benita, Ethics"
INDEX 01 00:00:00
FILE "08 - Lykken.wav" WAVE
TRACK 08 AUDIO
TITLE "Lykken"
PERFORMER "Michel Benita, Ethics"
INDEX 01 00:00:00
FILE "09 - Snowed In.wav" WAVE
TRACK 09 AUDIO
TITLE "Snowed In"
PERFORMER "Michel Benita, Ethics"
INDEX 01 00:00:00
20:42
355
Нет комментариев. Ваш будет первым!