Поиск

(Fusion, Ethnic Jazz, Vocal Jazz, World) [CD] Carmen Souza - Verdade - 2008, FLAC (tracks+.cue), lossless

(Fusion, Ethnic Jazz, Vocal Jazz, World) [CD] Carmen Souza - Verdade - 2008, FLAC (tracks+.cue), lossless
Треклист:
Carmen Souza - Verdade Жанр: Fusion, Ethnic Jazz, Vocal Jazz, World
Носитель: CD
Год издания: 2008
Издатель (лейбл): Galileo
Номер по каталогу: GMC037
Аудиокодек: FLAC (*.flac)
Тип рипа: tracks+.cue
Битрейт аудио: lossless
Продолжительность: 48:42
Rip by jlgt
Наличие сканов в содержимом раздачи: да
Треклист:
01. Confianca (4:16)
02. Afri Ka (5:09)
03. Ind'Feso (3:31)
04. Levanta No Bai (3:35)
05. Verdade (3:58)
06. Code (4:58)
07. Sem Valor (4:14)
08. D'Xam ess Moment (3:17)
09. Tud Tem 1 Razao 1 Moment (3:30)
10. Pergunta Sem Fim (4:31)
11. Viadade e Leviandade (3:00)
12. S. Anton M'Cre Conche bo Estoria (4:42)
 
 
Лог создания рипа
Exact Audio Copy V1.0 beta 1 from 15. November 2010
EAC extraction logfile from 14. January 2011, 19:40
Carmen Souza / Verdade
Used drive : HL-DT-STDVD-ROM GDR8164B Adapter: 0 ID: 1
Read mode : Secure
Utilize accurate stream : Yes
Defeat audio cache : Yes
Make use of C2 pointers : No
Read offset correction : 102
Overread into Lead-In and Lead-Out : No
Fill up missing offset samples with silence : Yes
Delete leading and trailing silent blocks : No
Null samples used in CRC calculations : Yes
Used interface : Native Win32 interface for Win NT & 2000
Gap handling : Appended to previous track
Used output format : User Defined Encoder
Selected bitrate : 768 kBit/s
Quality : High
Add ID3 tag : No
Command line compressor : C:\Archivos de programa\Exact Audio Copy\FLAC\FLAC.EXE
Additional command line options : -8 -V -T "ARTIST=%a" -T "TITLE=%t" -T "ALBUM=%g" -T "DATE=%y" -T "TRACKNUMBER=%n" -T "TOTALTRACKS=%x" -T "GENRE=%m" -T "ALBUMARTIST=%v" -T "ALBUM ARTIST=%v" -T "COMMENT=EAC Secure Mode, Test & Copy, AccurateRip, FLAC -8" %s
TOC of the extracted CD
Track | Start | Length | Start sector | End sector
---------------------------------------------------------
1 | 0:00.00 | 4:15.59 | 0 | 19183
2 | 4:15.59 | 5:08.58 | 19184 | 42341
3 | 9:24.42 | 3:31.00 | 42342 | 58166
4 | 12:55.42 | 3:35.19 | 58167 | 74310
5 | 16:30.61 | 3:58.14 | 74311 | 92174
6 | 20:29.00 | 4:57.48 | 92175 | 114497
7 | 25:26.48 | 4:13.67 | 114498 | 133539
8 | 29:40.40 | 3:16.72 | 133540 | 148311
9 | 32:57.37 | 3:30.01 | 148312 | 164062
10 | 36:27.38 | 4:31.34 | 164063 | 184421
11 | 40:58.72 | 3:00.35 | 184422 | 197956
12 | 43:59.32 | 4:42.11 | 197957 | 219117
Track 1
Filename E:\FTP\Carmen Souza - Verdade (2008) [FLAC]\01 - Confianca.wav
Pre-gap length 0:00:02.00
Peak level 98.8 %
Extraction speed 5.9 X
Track quality 100.0 %
Test CRC E6927490
Copy CRC E6927490
Cannot be verified as accurate (confidence 1) [10127A8F], AccurateRip returned [928CFC4F]
Copy OK
Track 2
Filename E:\FTP\Carmen Souza - Verdade (2008) [FLAC]\02 - Afri Ka.wav
Peak level 98.8 %
Extraction speed 6.8 X
Track quality 100.0 %
Test CRC 44E7E200
Copy CRC 44E7E200
Cannot be verified as accurate (confidence 1) [CA298378], AccurateRip returned [3A8E8008]
Copy OK
Track 3
Filename E:\FTP\Carmen Souza - Verdade (2008) [FLAC]\03 - Ind'Feso.wav
Peak level 98.8 %
Extraction speed 7.0 X
Track quality 100.0 %
Test CRC A095F820
Copy CRC A095F820
Cannot be verified as accurate (confidence 1) [E0DC7EEF], AccurateRip returned [CE7029FF]
Copy OK
Track 4
Filename E:\FTP\Carmen Souza - Verdade (2008) [FLAC]\04 - Levanta No Bai.wav
Peak level 98.8 %
Extraction speed 7.5 X
Track quality 100.0 %
Test CRC F421B1E9
Copy CRC F421B1E9
Cannot be verified as accurate (confidence 1) [0712581C], AccurateRip returned [FE785ADC]
Copy OK
Track 5
Filename E:\FTP\Carmen Souza - Verdade (2008) [FLAC]\05 - Verdade.wav
Peak level 98.8 %
Extraction speed 7.9 X
Track quality 100.0 %
Test CRC 8F9CBD16
Copy CRC 8F9CBD16
Cannot be verified as accurate (confidence 1) [5C92634D], AccurateRip returned [B2C7E30D]
Copy OK
Track 6
Filename E:\FTP\Carmen Souza - Verdade (2008) [FLAC]\06 - Code.wav
Peak level 98.8 %
Extraction speed 8.8 X
Track quality 100.0 %
Test CRC F96FBCE0
Copy CRC F96FBCE0
Cannot be verified as accurate (confidence 1) [382C6867], AccurateRip returned [51225057]
Copy OK
Track 7
Filename E:\FTP\Carmen Souza - Verdade (2008) [FLAC]\07 - Sem Valor.wav
Peak level 98.8 %
Extraction speed 9.0 X
Track quality 100.0 %
Test CRC 1A932523
Copy CRC 1A932523
Cannot be verified as accurate (confidence 1) [EA9BBA5E], AccurateRip returned [33A9D44E]
Copy OK
Track 8
Filename E:\FTP\Carmen Souza - Verdade (2008) [FLAC]\08 - D'Xam ess Moment.wav
Peak level 98.8 %
Extraction speed 9.0 X
Track quality 100.0 %
Test CRC 28B93AB4
Copy CRC 28B93AB4
Cannot be verified as accurate (confidence 1) [79335050], AccurateRip returned [FCD31EB0]
Copy OK
Track 9
Filename E:\FTP\Carmen Souza - Verdade (2008) [FLAC]\09 - Tud Tem 1 Razao 1 Moment.wav
Peak level 98.8 %
Extraction speed 9.4 X
Track quality 100.0 %
Test CRC 825C995A
Copy CRC 825C995A
Cannot be verified as accurate (confidence 1) [54BBFADB], AccurateRip returned [1A3DE6FB]
Copy OK
Track 10
Filename E:\FTP\Carmen Souza - Verdade (2008) [FLAC]\10 - Pergunta Sem Fin.wav
Peak level 98.8 %
Extraction speed 10.2 X
Track quality 100.0 %
Test CRC 8A732F03
Copy CRC 8A732F03
Cannot be verified as accurate (confidence 1) [72E92E69], AccurateRip returned [1149E209]
Copy OK
Track 11
Filename E:\FTP\Carmen Souza - Verdade (2008) [FLAC]\11 - Viadade e Leviandade.wav
Peak level 98.8 %
Extraction speed 9.7 X
Track quality 100.0 %
Test CRC A835DAF7
Copy CRC A835DAF7
Cannot be verified as accurate (confidence 1) [A9B35FCC], AccurateRip returned [74C52E7C]
Copy OK
Track 12
Filename E:\FTP\Carmen Souza - Verdade (2008) [FLAC]\12 - S. Anton M'Cre Conche bo Estoria.wav
Peak level 97.7 %
Extraction speed 10.6 X
Track quality 100.0 %
Test CRC 45DF024C
Copy CRC 45DF024C
Cannot be verified as accurate (confidence 1) [356FDA73], AccurateRip returned [49A07E44]
Copy OK
No tracks could be verified as accurate
You may have a different pressing from the one(s) in the database
No errors occurred
End of status report
==== Log checksum B0F2DE3D9CBBFA39A016A079B451DC496F4427946EC884958EC103D466BDDADE ====
 
Содержание индексной карты (.CUE)
REM GENRE "African Pop"
REM DATE 2008
REM DISCID BA0B690C
REM COMMENT "ExactAudioCopy v1.0b1"
PERFORMER "Carmen Souza"
TITLE "Verdade"
FILE "01 - Confianca.wav" WAVE
TRACK 01 AUDIO
TITLE "Confianca"
PERFORMER "Carmen Souza"
INDEX 01 00:00:00
FILE "02 - Afri Ka.wav" WAVE
TRACK 02 AUDIO
TITLE "Afri Ka"
PERFORMER "Carmen Souza"
INDEX 01 00:00:00
FILE "03 - Ind'Feso.wav" WAVE
TRACK 03 AUDIO
TITLE "Ind'Feso"
PERFORMER "Carmen Souza"
INDEX 01 00:00:00
FILE "04 - Levanta No Bai.wav" WAVE
TRACK 04 AUDIO
TITLE "Levanta No Bai"
PERFORMER "Carmen Souza"
INDEX 01 00:00:00
FILE "05 - Verdade.wav" WAVE
TRACK 05 AUDIO
TITLE "Verdade"
PERFORMER "Carmen Souza"
INDEX 01 00:00:00
FILE "06 - Code.wav" WAVE
TRACK 06 AUDIO
TITLE "Code"
PERFORMER "Carmen Souza"
INDEX 01 00:00:00
FILE "07 - Sem Valor.wav" WAVE
TRACK 07 AUDIO
TITLE "Sem Valor"
PERFORMER "Carmen Souza"
INDEX 01 00:00:00
FILE "08 - D'Xam ess Moment.wav" WAVE
TRACK 08 AUDIO
TITLE "D'Xam ess Moment"
PERFORMER "Carmen Souza"
INDEX 01 00:00:00
FILE "09 - Tud Tem 1 Razao 1 Moment.wav" WAVE
TRACK 09 AUDIO
TITLE "Tud Tem 1 Razao 1 Moment"
PERFORMER "Carmen Souza"
INDEX 01 00:00:00
FILE "10 - Pergunta Sem Fim.wav" WAVE
TRACK 10 AUDIO
TITLE "Pergunta Sem Fim"
PERFORMER "Carmen Souza"
INDEX 01 00:00:00
FILE "11 - Viadade e Leviandade.wav" WAVE
TRACK 11 AUDIO
TITLE "Viadade e Leviandade"
PERFORMER "Carmen Souza"
INDEX 01 00:00:00
FILE "12 - S. Anton M'Cre Conche bo Estoria.wav" WAVE
TRACK 12 AUDIO
TITLE "S. Anton M'Cre Conche bo Estoria"
PERFORMER "Carmen Souza"
INDEX 01 00:00:00
 
Состав
Carmen Souza: voice
Theo Pas'cal: double bass, bass, electric bass, percussions, guitar
JOao Maló: Guitar
Tiago Santos: guitar
Mick Trovoada: Percussions
Paulo Rosa Martins: percussions
Sebastian Scherriff: percussions
Victor Zamora: piano
Paulo Sergio: Piano
Jay Corre: Saxophone
Tim Pascoal: piano
Orlanda Guilande: back vocals
20:44
643
Нет комментариев. Ваш будет первым!