Поиск

(World Fusion / Ethnic Jazz) [CD] VA - Afro Cuban Jazz 1947-1960 (Machito, Chano Pozo with Charley Parker, Stan kenton, Dizzy Gillespie, J.J. Johnson, Kai Winding and others), - 1995, APE (image+.cue), lossless

(World Fusion / Ethnic Jazz) [CD] VA - Afro Cuban Jazz 1947-1960 (Machito, Chano Pozo with Charley Parker, Stan kenton, Dizzy Gillespie, J.J. Johnson, Kai Winding and others), - 1995, APE (image+.cue), lossless
Треклист:
Afro Cuban Jazz 1947-1960
Жанр: World Fusion / Ethnic Jazz
Носитель: CD
Страна-производитель диска (релиза): EU
Год издания: 1995
Издатель (лейбл): Giants of Jazz
Номер по каталогу: 53170
Страна исполнителя (группы): USA
Аудиокодек: APE (*.ape)
Тип рипа: image+.cue
Битрейт аудио: lossless
Продолжительность: 66'33
Источник (релизер): Own rip
Наличие сканов в содержимом раздачи: да
Треклист:
Machito & His Orchestra
01. Tin Tin Deo
02. Oyeme
03. Conservation
04. Kenya
09. Frenzy
10. Congo Mulence
11. Wild Jungle
12. Minor Rama
14. Mambo
15. 6-8 Jazz
Stan Kenton & His Orchestra
05. El Panzon
06. Carnival
The J.J. Johnson & Kai Winding Trombone Octet
07. The Peanut Vendor
08. Night In Tunisia
Chano Pozo & Dizzy Gillespie's Big Band
13. Manteca
Charlie Parker with Machito & His Orchestra
16. No Noise
17. Mango Manque
18. Okiedoke
with
cannonball Adderly
Mario Bauza
Harry Edison
Flip Philips
Buddy Rich
and others
 
Лог создания рипа
Exact Audio Copy V1.0 beta 3 from 29. August 2011
EAC extraction logfile from 17. May 2015, 15:27
Afro Cuban Jazz (1947-1960) / GoJ CD 53170
Used drive : TSSTcorpCDDVDW SE-208AB Adapter: 1 ID: 0
Read mode : Secure
Utilize accurate stream : Yes
Defeat audio cache : Yes
Make use of C2 pointers : No
Read offset correction : 6
Overread into Lead-In and Lead-Out : No
Fill up missing offset samples with silence : Yes
Delete leading and trailing silent blocks : No
Null samples used in CRC calculations : Yes
Used interface : Native Win32 interface for Win NT & 2000
Used output format : Monkey's Audio Lossless Encoder
Selected bitrate : High Lossless Compression
Quality : High
Add ID3 tag : Yes
Command line compressor : C:\Program Files (x86)\Exact Audio Copy\MAC\MAC.exe
TOC of the extracted CD
Track | Start | Length | Start sector | End sector
---------------------------------------------------------
1 | 0:00.00 | 2:59.10 | 0 | 13434
2 | 2:59.10 | 3:14.20 | 13435 | 28004
3 | 6:13.30 | 3:00.38 | 28005 | 41542
4 | 9:13.68 | 3:29.47 | 41543 | 57264
5 | 12:43.40 | 4:31.43 | 57265 | 77632
6 | 17:15.08 | 5:17.72 | 77633 | 101479
7 | 22:33.05 | 2:29.08 | 101480 | 112662
8 | 25:02.13 | 2:58.55 | 112663 | 126067
9 | 28:00.68 | 2:42.55 | 126068 | 138272
10 | 30:43.48 | 2:57.72 | 138273 | 151619
11 | 33:41.45 | 2:46.60 | 151620 | 164129
12 | 36:28.30 | 3:08.00 | 164130 | 178229
13 | 39:36.30 | 3:19.43 | 178230 | 193197
14 | 42:55.73 | 5:53.30 | 193198 | 219702
15 | 48:49.28 | 5:50.10 | 219703 | 245962
16 | 54:39.38 | 5:59.12 | 245963 | 272899
17 | 60:38.50 | 2:55.35 | 272900 | 286059
18 | 63:34.10 | 3:03.33 | 286060 | 299817
Range status and errors
Selected range
Filename D:\EAC\Afro Cuban Jazz (1947-1960) - GoJ CD 53170.wav
Peak level 83.7 %
Extraction speed 4.8 X
Range quality 100.0 %
Test CRC 3D36A4BD
Copy CRC 3D36A4BD
Copy OK
No errors occurred
AccurateRip summary
Track 1 accurately ripped (confidence 2) [57C3C45F] (AR v2)
Track 2 accurately ripped (confidence 2) [141F96B8] (AR v2)
Track 3 accurately ripped (confidence 2) [922CB146] (AR v2)
Track 4 accurately ripped (confidence 2) [58CA2B8C] (AR v2)
Track 5 accurately ripped (confidence 2) [579E4912] (AR v2)
Track 6 accurately ripped (confidence 2) [EE18CBA5] (AR v2)
Track 7 accurately ripped (confidence 2) [67B1E5B6] (AR v2)
Track 8 accurately ripped (confidence 2) [A2333270] (AR v2)
Track 9 accurately ripped (confidence 2) [08878519] (AR v2)
Track 10 accurately ripped (confidence 2) [D5D57518] (AR v2)
Track 11 accurately ripped (confidence 2) [73A1217A] (AR v2)
Track 12 accurately ripped (confidence 2) [489EF8D3] (AR v2)
Track 13 accurately ripped (confidence 2) [1AB12F17] (AR v2)
Track 14 accurately ripped (confidence 2) [88294E43] (AR v2)
Track 15 accurately ripped (confidence 2) [5DAF7556] (AR v2)
Track 16 accurately ripped (confidence 2) [87A9D477] (AR v2)
Track 17 accurately ripped (confidence 2) [8DAF96D4] (AR v2)
Track 18 accurately ripped (confidence 2) [868BA783] (AR v2)
All tracks accurately ripped
End of status report
---- CUETools DB Plugin V2.1.3
[CTDB TOCID: gRHqVFNHU9CuuoNIKPGbmKkvC6w-] found, Submit result: gRHqVFNHU9CuuoNIKPGbmKkvC6w- has been confirmed
[327fe006] (1/1) Accurately ripped
==== Log checksum 01048E2C36920F8045C6A6497959F7AC093AF6C788656807E3F1E20B265D5E63 ====
 
Содержание индексной карты (.CUE)
REM GENRE Jazz
REM DATE 1995
REM DISCID FA0F9D12
REM COMMENT "ExactAudioCopy v1.0b3"
PERFORMER "Afro Cuban Jazz (1947-1960)"
TITLE " GoJ CD 53170"
FILE "Afro Cuban Jazz (1947-1960) - GoJ CD 53170.ape" WAVE
TRACK 01 AUDIO
TITLE "Tin Tin Deo"
PERFORMER "Machito & His Orchestra"
INDEX 01 00:00:00
TRACK 02 AUDIO
TITLE "Oyeme"
PERFORMER "Machito & His Orchestra"
INDEX 01 02:59:10
TRACK 03 AUDIO
TITLE "Conservation"
PERFORMER "Machito & His Orchestra"
INDEX 01 06:13:30
TRACK 04 AUDIO
TITLE "Kenya"
PERFORMER "Machito & His Orchestra"
INDEX 00 09:12:25
INDEX 01 09:13:68
TRACK 05 AUDIO
TITLE "El Panzon"
PERFORMER "Stan Kenton & His Orchestra"
INDEX 01 12:43:40
TRACK 06 AUDIO
TITLE "Carnival"
PERFORMER "Stan Kenton & His Orchestra"
INDEX 01 17:15:08
TRACK 07 AUDIO
TITLE "The Peanut Vendor"
PERFORMER "The J.J. Johnson & Kai Winding Trombone Octet"
INDEX 01 22:33:05
TRACK 08 AUDIO
TITLE "Night In Tunisia"
PERFORMER "The J.J. Johnson & Kai Winding Trombone Octet"
INDEX 01 25:02:13
TRACK 09 AUDIO
TITLE "Frenzy"
PERFORMER "Machito & His Orchestra"
INDEX 01 28:00:68
TRACK 10 AUDIO
TITLE "Congo Mulence"
PERFORMER "Machito & His Orchestra"
INDEX 01 30:43:48
TRACK 11 AUDIO
TITLE "Wild Jungle"
PERFORMER "Machito & His Orchestra"
INDEX 01 33:41:45
TRACK 12 AUDIO
TITLE "Minor Rama"
PERFORMER "Machito & His Orchestra"
INDEX 01 36:28:30
TRACK 13 AUDIO
TITLE "Manteca"
PERFORMER "Chano Pozo & Dizzy Gillespie's Big Band"
INDEX 01 39:36:30
TRACK 14 AUDIO
TITLE "Mambo"
PERFORMER "Machito & His Orchestra"
INDEX 01 42:55:73
TRACK 15 AUDIO
TITLE "6-8 Jazz"
PERFORMER "Machito & His Orchestra"
INDEX 01 48:49:28
TRACK 16 AUDIO
TITLE "No Noise"
PERFORMER "Charlie Parker with Machito & His Orchestra"
INDEX 01 54:39:38
TRACK 17 AUDIO
TITLE "Mango Manque"
PERFORMER "Charlie Parker with Machito & His Orchestra"
INDEX 01 60:38:50
TRACK 18 AUDIO
TITLE "Okiedoke"
PERFORMER "Charlie Parker with Machito & His Orchestra"
INDEX 01 63:34:10
18:43
683
Нет комментариев. Ваш будет первым!