Поиск

(jazz, klezmer) [cd] Bester Quartet - Krakoff (2013), FLAC (tracks+.cue), lossless

(jazz, klezmer) [cd] Bester Quartet - Krakoff (2013), FLAC (tracks+.cue), lossless
Треклист:
(jazz, klezmer) [cd] Bester Quartet - Krakoff (2013), FLAC (tracks+.cue), lossless


Bester Quartet - Krakoff (2013)

Жанр: jazz, klezmer
Год выпуска: 2013
Издатель (лейбл): ForTune / 0011
Формат: FLAC (tracks+.cue)
Битрейт аудио: lossless
Продолжительность 1`09`59
Источник: what.cd
Jarosław Bester - bayan
Jarosław Tyrała - violin
Oleg Dyyak - accordion, clarinet, duduk, percussion
Mikołaj Pospieszalski - contrabass
Recording concert live from National Philharmonic Hall in Warsaw, January, 10, 2013

tracks

1. Hope
2. Schlojmele Lieber
3. Ecce Homo
4. Metamorphoses
5. God – Forsaken
6. The Magic Casket
7. Fantasia
8. Solitude
9. The Time Of Freedom
10. Spectre
11. A Devilish A Tale
12. The Colours Of The Heavens


 
.log
Exact Audio Copy V1.0 beta 3 from 29. August 2011
EAC extraction logfile from 15. August 2013, 1:08
Bester Quartet / Krakoff
Used drive : TSSTcorpCDDVDW SE-208DB Adapter: 2 ID: 0
Read mode : Secure
Utilize accurate stream : Yes
Defeat audio cache : Yes
Make use of C2 pointers : No
Read offset correction : 6
Overread into Lead-In and Lead-Out : No
Fill up missing offset samples with silence : Yes
Delete leading and trailing silent blocks : No
Null samples used in CRC calculations : Yes
Used interface : Native Win32 interface for Win NT & 2000
Gap handling : Appended to previous track
Used output format : User Defined Encoder
Selected bitrate : 1024 kBit/s
Quality : High
Add ID3 tag : No
Command line compressor : C:\Program Files (x86)\Exact Audio Copy\FLAC\FLAC.EXE
Additional command line options : -8 -V -T "ARTIST=%artist%" -T "TITLE=%title%" -T "ALBUM=%albumtitle%" -T "DATE=%year%" -T "TRACKNUMBER=%tracknr%" -T "GENRE=%genre%" -T "PERFORMER=%albuminterpret%" -T "COMPOSER=%composer%" %haslyrics%--tag-from-file=LYRICS="%lyricsfile%"%haslyrics% -T "ALBUMARTIST=%albumartist%" -T "DISCNUMBER=%cdnumber%" -T "TOTALDISCS=%totalcds%" -T "TOTALTRACKS=%numtracks%" -T "COMMENT=%comment%" %source% -o %dest%
TOC of the extracted CD
Track | Start | Length | Start sector | End sector
---------------------------------------------------------
1 | 0:00.00 | 8:20.00 | 0 | 37499
2 | 8:20.00 | 6:07.00 | 37500 | 65024
3 | 14:27.00 | 5:50.00 | 65025 | 91274
4 | 20:17.00 | 8:09.00 | 91275 | 127949
5 | 28:26.00 | 7:07.00 | 127950 | 159974
6 | 35:33.00 | 5:29.00 | 159975 | 184649
7 | 41:02.00 | 4:31.00 | 184650 | 204974
8 | 45:33.00 | 10:16.00 | 204975 | 251174
9 | 55:49.00 | 3:27.00 | 251175 | 266699
10 | 59:16.00 | 2:00.00 | 266700 | 275699
11 | 61:16.00 | 3:27.00 | 275700 | 291224
12 | 64:43.00 | 5:16.00 | 291225 | 314924
Track 1
Filename W:\_MUSIC ALL\Bester Quartet - Krakoff (2013) [FLAC]\01. Hope.wav
Pre-gap length 0:00:02.00
Peak level 98.6 %
Extraction speed 2.2 X
Track quality 99.9 %
Test CRC F59BB090
Copy CRC F59BB090
Track not present in AccurateRip database
Copy OK
Track 2
Filename W:\_MUSIC ALL\Bester Quartet - Krakoff (2013) [FLAC]\02. Schlojmele Lieber.wav
Peak level 100.0 %
Extraction speed 2.7 X
Track quality 100.0 %
Test CRC 9D0EAD60
Copy CRC 9D0EAD60
Track not present in AccurateRip database
Copy OK
Track 3
Filename W:\_MUSIC ALL\Bester Quartet - Krakoff (2013) [FLAC]\03. Ecce Homo.wav
Peak level 96.7 %
Extraction speed 3.0 X
Track quality 100.0 %
Test CRC 6CB4A283
Copy CRC 6CB4A283
Track not present in AccurateRip database
Copy OK
Track 4
Filename W:\_MUSIC ALL\Bester Quartet - Krakoff (2013) [FLAC]\04. Metamorphoses.wav
Peak level 100.0 %
Extraction speed 3.0 X
Track quality 99.9 %
Test CRC 42FFE9D9
Copy CRC 42FFE9D9
Track not present in AccurateRip database
Copy OK
Track 5
Filename W:\_MUSIC ALL\Bester Quartet - Krakoff (2013) [FLAC]\05. God - Forsaken.wav
Peak level 93.6 %
Extraction speed 3.6 X
Track quality 100.0 %
Test CRC 9ED72709
Copy CRC 9ED72709
Track not present in AccurateRip database
Copy OK
Track 6
Filename W:\_MUSIC ALL\Bester Quartet - Krakoff (2013) [FLAC]\06. The Magic Casket.wav
Peak level 97.7 %
Extraction speed 3.1 X
Track quality 99.9 %
Test CRC 77EEF933
Copy CRC 77EEF933
Track not present in AccurateRip database
Copy OK
Track 7
Filename W:\_MUSIC ALL\Bester Quartet - Krakoff (2013) [FLAC]\07. Fantasia.wav
Peak level 98.6 %
Extraction speed 3.8 X
Track quality 100.0 %
Test CRC AC265B59
Copy CRC AC265B59
Track not present in AccurateRip database
Copy OK
Track 8
Filename W:\_MUSIC ALL\Bester Quartet - Krakoff (2013) [FLAC]\08. Solitude.wav
Peak level 100.0 %
Extraction speed 4.3 X
Track quality 100.0 %
Test CRC C48053AE
Copy CRC C48053AE
Track not present in AccurateRip database
Copy OK
Track 9
Filename W:\_MUSIC ALL\Bester Quartet - Krakoff (2013) [FLAC]\09. The Time Of Freedom.wav
Peak level 98.1 %
Extraction speed 4.0 X
Track quality 100.0 %
Test CRC 427ED1F5
Copy CRC 427ED1F5
Track not present in AccurateRip database
Copy OK
Track 10
Filename W:\_MUSIC ALL\Bester Quartet - Krakoff (2013) [FLAC]\10. Spectre.wav
Peak level 96.5 %
Extraction speed 3.6 X
Track quality 100.0 %
Test CRC C36E4A73
Copy CRC C36E4A73
Track not present in AccurateRip database
Copy OK
Track 11
Filename W:\_MUSIC ALL\Bester Quartet - Krakoff (2013) [FLAC]\11. A Devilish A Tale.wav
Peak level 97.8 %
Extraction speed 4.1 X
Track quality 100.0 %
Test CRC 586E2BD2
Copy CRC 586E2BD2
Track not present in AccurateRip database
Copy OK
Track 12
Filename W:\_MUSIC ALL\Bester Quartet - Krakoff (2013) [FLAC]\12. The Colours Of The Heavens.wav
Peak level 100.0 %
Extraction speed 4.4 X
Track quality 100.0 %
Test CRC 61C7AC04
Copy CRC 61C7AC04
Track not present in AccurateRip database
Copy OK
None of the tracks are present in the AccurateRip database
No errors occurred
End of status report
---- CUETools DB Plugin V2.1.3
[CTDB TOCID: ocsYfGdRdWpajeLPzO.RZBz0Oxg-] found, Submit result: already submitted
[f1410568] (1/1) Accurately ripped
==== Log checksum 4EF5C8FEA431025484EED373A6E1AE3B2B366FCFE8C35575F3B29CF35422F82E ====
 
.cue
REM GENRE Jazz
REM DATE 2013
REM DISCID BA10670C
REM COMMENT "ExactAudioCopy v1.0b3"
PERFORMER "Bester Quartet"
TITLE "Krakoff"
FILE "01. Hope.wav" WAVE
TRACK 01 AUDIO
TITLE "Hope"
PERFORMER "Bester Quartet"
ISRC PLH161300069
INDEX 01 00:00:00
FILE "02. Schlojmele Lieber.wav" WAVE
TRACK 02 AUDIO
TITLE "Schlojmele Lieber"
PERFORMER "Bester Quartet"
ISRC PLH161300070
INDEX 01 00:00:00
FILE "03. Ecce Homo.wav" WAVE
TRACK 03 AUDIO
TITLE "Ecce Homo"
PERFORMER "Bester Quartet"
ISRC PLH161300071
INDEX 01 00:00:00
FILE "04. Metamorphoses.wav" WAVE
TRACK 04 AUDIO
TITLE "Metamorphoses"
PERFORMER "Bester Quartet"
ISRC PLH161300072
INDEX 01 00:00:00
FILE "05. God - Forsaken.wav" WAVE
TRACK 05 AUDIO
TITLE "God - Forsaken"
PERFORMER "Bester Quartet"
ISRC PLH161300073
INDEX 01 00:00:00
FILE "06. The Magic Casket.wav" WAVE
TRACK 06 AUDIO
TITLE "The Magic Casket"
PERFORMER "Bester Quartet"
ISRC PLH161300074
INDEX 01 00:00:00
FILE "07. Fantasia.wav" WAVE
TRACK 07 AUDIO
TITLE "Fantasia"
PERFORMER "Bester Quartet"
ISRC PLH161300075
INDEX 01 00:00:00
FILE "08. Solitude.wav" WAVE
TRACK 08 AUDIO
TITLE "Solitude"
PERFORMER "Bester Quartet"
ISRC PLH161300076
INDEX 01 00:00:00
FILE "09. The Time Of Freedom.wav" WAVE
TRACK 09 AUDIO
TITLE "The Time Of Freedom"
PERFORMER "Bester Quartet"
ISRC PLH161300077
INDEX 01 00:00:00
FILE "10. Spectre.wav" WAVE
TRACK 10 AUDIO
TITLE "Spectre"
PERFORMER "Bester Quartet"
ISRC PLH161300078
INDEX 01 00:00:00
FILE "11. A Devilish A Tale.wav" WAVE
TRACK 11 AUDIO
TITLE "A Devilish A Tale"
PERFORMER "Bester Quartet"
ISRC PLH161300079
INDEX 01 00:00:00
FILE "12. The Colours Of The Heavens.wav" WAVE
TRACK 12 AUDIO
TITLE "The Colours Of The Heavens"
PERFORMER "Bester Quartet"
ISRC PLH161300080
INDEX 01 00:00:00

другие релизы
18:43
395
Нет комментариев. Ваш будет первым!