Поиск

(World Fusion, Ethnic Jazz) [CD] Savina Yannatou - Коллекция (5 Albums) - 1982-2007, FLAC (tracks+.cue, tracks), lossless

(World Fusion, Ethnic Jazz) [CD] Savina Yannatou - Коллекция (5 Albums) - 1982-2007, FLAC (tracks+.cue, tracks), lossless
Треклист:
- Savina Yannatou (Σαβίνα Γιαννάτου) -
- Коллекция (5 Albums) -
|| Жанр: World Fusion, Ethnic Jazz || Год издания диска: 1982-2007 || Носитель: CD || Страна-производитель диска: Greece ||
|| Издатель (лейбл): LYRΑ || Аудио кодек: FLAC (*.flac) || Тип рипа: tracks+.cue, tracks || Битрейт аудио: lossless ||
|| Продолжительность: 03:27:51 || Источник (релизер): ЦА ШИ КО, Rougia, abantos || Наличие сканов в содержимом раздачи: да ||
Born in Athens, Greece, Savina Yannatou studied song with G. Georilopoulou at the National Conservatory and later with Spiros Sakkas at the Workshop of Vocal Art in Athens. She attended postgraduate studies (performance and communication skills) at Guildhall School of Music and Drama, London, with a scholarship awarded by the Mousigetis Foundation.
Her professional career as a singer started while still a student, when she sang for the very successful and until today highly respected daily program of the Greek National Radio 3 «Lillipoupoli» under the direction of the famous composer Manos Hadjidakis.
After that she interpreted «entechno» («artful») Greek songs, collaborating with well-known Greek composers and also covered contemporary opera and music. Later she focused on medieval, renaissance and baroque music. In the early nineties she started experimenting with different vocal technics in free improvisation. Parallel to that she started a collaboration with a number of Thessaloniki-based musicians, who at that occasion founded the group «Primavera en Salonico», with which she recorded - and later performed - "Primavera en Salonico"-Sephardic Folk Songs from Salonica-, "Songs from the Mediterranean" , the "Virgin Maries of the World" and "Terra Nostra" (all released by LYRA/Musurgia Graeca, the second also in the USA by Sounds True under the name "Mediterranea" and the last one also by ECM).
 
...
Savina Yannatou has also composed her own music and songs (a.o. "Rosa das Rosas" and "Dreams of the Mermaid" both released by Musurgia Graeca), as well as music for theater, for Medea, performed in 1997 by the National Greek Theatre, for Bacchai (2005) and Dibuk (2006), performed by the National Greek Theatre, and for the play "The Woman of Zante" of Dionyssios Solomos, she has also composed music for video art and dance theater. All together she has brought out and/or participated in over 20 LPs and CDs.
Her professional career as a singer since 1979 and as a composer-singer-vocalist since 1986 has been covering a variety of musical kinds in performances, festivals, theater and TV production, recordings etc..

Albums
 
1982 - Karyotakis - 13 Tragoudia (Karyotakis - 13 Songs) (1996 Re-release) - (00:34:19) ★●★ LYRΑ/Greece/3344
01. Βράδυ (03:08)
02. Χαμόγελο (02:52)
03. Άνοιξη (02:18)
04. Νύχτα (02:17)
05. Σε Παλαιό Συμφοιτητή (03:02)
06. Παιδικό (04:02)
07. Το Φεγγαράκι Απόψε (03:03)
08. Η Δέσμη Από Τριαντάφυλλα (02:40)
09. Τα Γράμματά Σου (03:02)
10. Κριτική (00:31)
11. Η Πεδιάς Και Το Νεκροταφείον (02:49)
12. Πεθαίνοντας (02:55)
13. Μόνο (01:40)
 
Audiochecker
AUDIOCHECKER v2.0 beta (build 457) - by Dester - opdester@freemail.hu
~~~~~~~~~~~~~~~~~~~~~~~~~~~~~~~~~~
Started at: Thursday, 14. 05. 2015. - 23:12.47
13 files found
01 -===- C:\Users\CASHIKO\Downloads\1982 - Karyotakis - 13 Tragoudia (Karyotakis - 13 Songs) (1996 Re-release)\01. ÂñÜäõ.flac
Extracted successfully
Conclusion: this track is CDDA with probability 99%
Tempfile successfully deleted.
02 -===- C:\Users\CASHIKO\Downloads\1982 - Karyotakis - 13 Tragoudia (Karyotakis - 13 Songs) (1996 Re-release)\02. ×áìüãåëï.flac
Extracted successfully
Conclusion: this track is CDDA with probability 99%
Tempfile successfully deleted.
03 -===- C:\Users\CASHIKO\Downloads\1982 - Karyotakis - 13 Tragoudia (Karyotakis - 13 Songs) (1996 Re-release)\03. ¢íïéîç.flac
Extracted successfully
Conclusion: this track is CDDA with probability 100%
Tempfile successfully deleted.
04 -===- C:\Users\CASHIKO\Downloads\1982 - Karyotakis - 13 Tragoudia (Karyotakis - 13 Songs) (1996 Re-release)\04. Íý÷ôá.flac
Extracted successfully
Conclusion: this track is CDDA with probability 100%
Tempfile successfully deleted.
05 -===- C:\Users\CASHIKO\Downloads\1982 - Karyotakis - 13 Tragoudia (Karyotakis - 13 Songs) (1996 Re-release)\05. Óå Ðáëáéü ÓõìöïéôçôÞ.flac
Extracted successfully
Conclusion: this track is CDDA with probability 100%
Tempfile successfully deleted.
06 -===- C:\Users\CASHIKO\Downloads\1982 - Karyotakis - 13 Tragoudia (Karyotakis - 13 Songs) (1996 Re-release)\06. Ðáéäéêü.flac
Extracted successfully
Conclusion: this track is CDDA with probability 100%
Tempfile successfully deleted.
07 -===- C:\Users\CASHIKO\Downloads\1982 - Karyotakis - 13 Tragoudia (Karyotakis - 13 Songs) (1996 Re-release)\07. Ôï ÖåããáñÜêé Áðüøå.flac
Extracted successfully
Conclusion: this track is CDDA with probability 100%
Tempfile successfully deleted.
08 -===- C:\Users\CASHIKO\Downloads\1982 - Karyotakis - 13 Tragoudia (Karyotakis - 13 Songs) (1996 Re-release)\08. Ç ÄÝóìç Áðü ÔñéáíôÜöõëëá.flac
Extracted successfully
Conclusion: this track is CDDA with probability 100%
Tempfile successfully deleted.
09 -===- C:\Users\CASHIKO\Downloads\1982 - Karyotakis - 13 Tragoudia (Karyotakis - 13 Songs) (1996 Re-release)\09. Ôá ÃñÜììáôÜ Óïõ.flac
Extracted successfully
Conclusion: this track is CDDA with probability 100%
Tempfile successfully deleted.
10 -===- C:\Users\CASHIKO\Downloads\1982 - Karyotakis - 13 Tragoudia (Karyotakis - 13 Songs) (1996 Re-release)\10. ÊñéôéêÞ.flac
Extracted successfully
Conclusion: this track is CDDA with probability 100%
Tempfile successfully deleted.
11 -===- C:\Users\CASHIKO\Downloads\1982 - Karyotakis - 13 Tragoudia (Karyotakis - 13 Songs) (1996 Re-release)\11. Ç ÐåäéÜò Êáé Ôï Íåêñïôáöåßïí.flac
Extracted successfully
Conclusion: this track is CDDA with probability 99%
Tempfile successfully deleted.
12 -===- C:\Users\CASHIKO\Downloads\1982 - Karyotakis - 13 Tragoudia (Karyotakis - 13 Songs) (1996 Re-release)\12. Ðåèáßíïíôáò.flac
Extracted successfully
Conclusion: this track is CDDA with probability 99%
Tempfile successfully deleted.
13 -===- C:\Users\CASHIKO\Downloads\1982 - Karyotakis - 13 Tragoudia (Karyotakis - 13 Songs) (1996 Re-release)\13. Ìüíï.flac
Extracted successfully
Conclusion: this track is CDDA with probability 100%
Tempfile successfully deleted.
Finished at: Thursday, 14. 05. 2015. - 23:20.30 (operation time: 0:07.43)
 
1985 - Nanourismata (Traditional Lullabies) (2007 Re-release) - (00:40:11) ★●★ LYRΑ/Greece/3401176105
01. Ypne Pou Pernis Ta Mikra (Slumber That Puttest The Little Ones To Sleep) (03:24)
(originating from the isle of Thassos)
02. Tiki-Tiki-Tiki (02:38)
(originating from Southern Italy)
03. Nani Tou Riga To Pedi (Hush-A-Bye The Regent's Child) (02:22)
(originating from the isle of Carpathos)
04. Astrapsen I Anatoli (The Rising Sun Is All Ablaze) (01:53)
(originating from Smyrna)
05. Ypne Pou Pernis Ta Mikra (Slumber That Puttest The Little Ones To Sleep) (03:24)
(music: Dimitris Semsis)
06. Nani Tou Riga To Pedi (Hush-A-Bye The Regent's Child) (02:02)
(music: Manos Hadjidakis, lyrics: Nikos Gatsos)
07. Kimisou, Angeloudi Mou (Go To Sleep My Little Angel) (03:41)
(music: Mikis Theodorakis, lyrics: Costas Virvos)
08. Nani To Garoufalo Mou (Go To Bye-Byes My Sweet-Smelling Carnation) (03:29)
(music: Manos Hadjidakis, lyrics: Nikos Gatsos)
09. Ela, Ypne Mou, Pare To (Slumber, Draw Nigh) (01:11)
(originating from the isle of Chios)
10. Aide Kimisou, Kori Mou (Go to Sleep My Little Girlie) (02:18)
(originating from Smyrna)
11. Pare To, Ypne, To Pedi (Slumber, Take My Little Child) (02:15)
(originating from the isle of Crete)
12. Kimate Mena O Skrinos Mou (My Lily Is Fast Asleep) (02:22)
(originating from the isle of Astypalaea)
13. Ela, Ypne, Kemise To (Slumber, Put My Little One to Sleep) (01:21)
(originating from the Peloponnese)
14. Ela, Ypne, Ke Pare To (Slumber, Take My Baby Sweet) (04:59)
(originating from the isle of Mytilene)
15. Nanourisma (Lullaby) (02:52)
(music: Yorgos Kypourgos, lyrics: Andreas Angelakis)
 
Info
The idea for an album compilation of lullabies was from composer Nikos Kypourgos and coincided with his daughter`s birth. Most of these traditional songs have been preserved in various archives. The fact that Kypourgos did not have any recorded material at his disposal provided an alibi to treat the songs more freely. This final compilation is performed by a group of excellent musicians complemented by the unique voice of Savina Yannatou. The real secret of Lullabies is that they can actually touch and appeal to grown-ups just as much as children.
 
Лог создания рипа
Exact Audio Copy V1.0 beta 3 from 29. August 2011
EAC extraction logfile from 27. January 2015, 11:40
Savina Yannatou / Nanourismata (Traditional Lullabies)
Used drive : HL-DT-STDVDRAM GSA-4167B Adapter: 0 ID: 0
Read mode : Secure
Utilize accurate stream : Yes
Defeat audio cache : Yes
Make use of C2 pointers : No
Read offset correction : 667
Overread into Lead-In and Lead-Out : No
Fill up missing offset samples with silence : Yes
Delete leading and trailing silent blocks : No
Null samples used in CRC calculations : Yes
Used interface : Native Win32 interface for Win NT & 2000
Gap handling : Appended to previous track
Used output format : User Defined Encoder
Selected bitrate : 1024 kBit/s
Quality : High
Add ID3 tag : No
Command line compressor : C:\Program Files\Exact Audio Copy\Flac\flac.exe
Additional command line options : -8 -V -T "ARTIST=%artist%" -T "TITLE=%title%" -T "ALBUM=%albumtitle%" -T "DATE=%year%" -T "TRACKNUMBER=%tracknr%" -T "GENRE=%genre%" -T "PERFORMER=%albuminterpret%" -T "COMPOSER=%composer%" %haslyrics%--tag-from-file=LYRICS="%lyricsfile%"%haslyrics% -T "ALBUMARTIST=%albumartist%" -T "DISCNUMBER=%cdnumber%" -T "TOTALDISCS=%totalcds%" -T "TOTALTRACKS=%numtracks%" -T "COMMENT=%comment%" %source% -o %dest%
TOC of the extracted CD
Track | Start | Length | Start sector | End sector
---------------------------------------------------------
1 | 0:00.00 | 3:23.63 | 0 | 15287
2 | 3:23.63 | 2:38.28 | 15288 | 27165
3 | 6:02.16 | 2:22.05 | 27166 | 37820
4 | 8:24.21 | 1:52.66 | 37821 | 46286
5 | 10:17.12 | 3:23.49 | 46287 | 61560
6 | 13:40.61 | 2:01.63 | 61561 | 70698
7 | 15:42.49 | 3:41.23 | 70699 | 87296
8 | 19:23.72 | 3:29.15 | 87297 | 102986
9 | 22:53.12 | 1:11.06 | 102987 | 108317
10 | 24:04.18 | 2:17.58 | 108318 | 118650
11 | 26:22.01 | 2:14.59 | 118651 | 128759
12 | 28:36.60 | 2:21.54 | 128760 | 139388
13 | 30:58.39 | 1:21.04 | 139389 | 145467
14 | 32:19.43 | 4:59.03 | 145468 | 167895
15 | 37:18.46 | 2:51.43 | 167896 | 180763
Track 1
Filename D:\CASHIKO\01 - Ypne Pou Pernis Ta Mikra (Slumber That Puttest The Little Ones To Sleep).wav
Pre-gap length 0:00:02.00
Peak level 98.8 %
Extraction speed 3.5 X
Track quality 99.9 %
Test CRC 6A17090D
Copy CRC 6A17090D
Accurately ripped (confidence 1) [879705BB] (AR v2)
Copy OK
Track 2
Filename D:\CASHIKO\02 - Tiki-Tiki-Tiki.wav
Pre-gap length 0:00:02.00
Peak level 98.8 %
Extraction speed 3.4 X
Track quality 99.9 %
Test CRC EF3560DA
Copy CRC EF3560DA
Accurately ripped (confidence 1) [5D6E8649] (AR v2)
Copy OK
Track 3
Filename D:\CASHIKO\03 - Nani Tou Riga To Pedi (Hush-A-Bye The Regent's Child).wav
Pre-gap length 0:00:02.00
Peak level 98.8 %
Extraction speed 3.4 X
Track quality 99.9 %
Test CRC 0FF04156
Copy CRC 0FF04156
Accurately ripped (confidence 1) [8127C931] (AR v2)
Copy OK
Track 4
Filename D:\CASHIKO\04 - Astrapsen I Anatoli (The Rising Sun Is All Ablaze).wav
Pre-gap length 0:00:02.00
Peak level 98.8 %
Extraction speed 3.2 X
Track quality 99.9 %
Test CRC 60991B80
Copy CRC 60991B80
Cannot be verified as accurate (confidence 1) [F2E412FE], AccurateRip returned [43056E73] (AR v2)
Copy OK
Track 5
Filename D:\CASHIKO\05 - Ypne Pou Pernis Ta Mikra (Slumber That Puttest The Little Ones To Sleep).wav
Pre-gap length 0:00:02.00
Peak level 98.8 %
Extraction speed 5.4 X
Track quality 100.0 %
Test CRC B24B8182
Copy CRC B24B8182
Accurately ripped (confidence 1) [A47444D9] (AR v2)
Copy OK
Track 6
Filename D:\CASHIKO\06 - Nani Tou Riga To Pedi (Hush-A-Bye The Regent's Child).wav
Pre-gap length 0:00:02.00
Peak level 98.8 %
Extraction speed 3.6 X
Track quality 99.9 %
Test CRC 5276AB56
Copy CRC 5276AB56
Accurately ripped (confidence 1) [EFCF4A01] (AR v2)
Copy OK
Track 7
Filename D:\CASHIKO\07 - Kimisou, Angeloudi Mou (Go To Sleep My Little Angel).wav
Pre-gap length 0:00:02.00
Peak level 98.8 %
Extraction speed 3.5 X
Track quality 100.0 %
Test CRC 7B5B310A
Copy CRC 7B5B310A
Accurately ripped (confidence 1) [DD42B943] (AR v2)
Copy OK
Track 8
Filename D:\CASHIKO\08 - Nani To Garoufalo Mou (Go To Bye-Byes My Sweet-Smelling Carnation).wav
Pre-gap length 0:00:02.00
Peak level 98.8 %
Extraction speed 3.7 X
Track quality 100.0 %
Test CRC 091B4E5F
Copy CRC 091B4E5F
Accurately ripped (confidence 1) [21C962DA] (AR v2)
Copy OK
Track 9
Filename D:\CASHIKO\09 - Ela, Ypne Mou, Pare To (Slumber, Draw Nigh).wav
Pre-gap length 0:00:02.00
Peak level 98.8 %
Extraction speed 2.9 X
Track quality 100.0 %
Test CRC E1D240E0
Copy CRC E1D240E0
Cannot be verified as accurate (confidence 1) [5839EE93], AccurateRip returned [626A8171] (AR v2)
Copy OK
Track 10
Filename D:\CASHIKO\10 - Aide Kimisou, Kori Mou (Go to Sleep My Little Girlie).wav
Pre-gap length 0:00:02.00
Peak level 98.8 %
Extraction speed 2.9 X
Track quality 99.9 %
Test CRC 7FC568DB
Copy CRC 7FC568DB
Accurately ripped (confidence 1) [FA72C4FE] (AR v2)
Copy OK
Track 11
Filename D:\CASHIKO\11 - Pare To, Ypne, To Pedi (Slumber, Take My Little Child).wav
Pre-gap length 0:00:02.00
Peak level 87.9 %
Extraction speed 2.9 X
Track quality 99.9 %
Test CRC F6E8FE53
Copy CRC F6E8FE53
Accurately ripped (confidence 1) [CFD1ECC5] (AR v2)
Copy OK
Track 12
Filename D:\CASHIKO\12 - Kimate Mena O Skrinos Mou (My Lily Is Fast Asleep).wav
Pre-gap length 0:00:02.00
Peak level 98.8 %
Extraction speed 3.1 X
Track quality 99.9 %
Test CRC 1B1C943D
Copy CRC 1B1C943D
Accurately ripped (confidence 1) [9B7815E2] (AR v2)
Copy OK
Track 13
Filename D:\CASHIKO\13 - Ela, Ypne, Kemise To (Slumber, Put My Little One to Sleep).wav
Pre-gap length 0:00:02.00
Peak level 84.1 %
Extraction speed 3.3 X
Track quality 100.0 %
Test CRC 48FDD3D0
Copy CRC 48FDD3D0
Cannot be verified as accurate (confidence 1) [E92BE612], AccurateRip returned [F9B01814] (AR v2)
Copy OK
Track 14
Filename D:\CASHIKO\14 - Ela, Ypne, Ke Pare To (Slumber, Take My Baby Sweet).wav
Pre-gap length 0:00:02.00
Peak level 98.8 %
Extraction speed 4.4 X
Track quality 100.0 %
Test CRC 04220047
Copy CRC 04220047
Cannot be verified as accurate (confidence 1) [63461F75], AccurateRip returned [4DE2B91A] (AR v2)
Copy OK
Track 15
Filename D:\CASHIKO\15 - Nanourisma (Lullaby).wav
Pre-gap length 0:00:02.00
Peak level 98.8 %
Extraction speed 4.4 X
Track quality 100.0 %
Test CRC 6CBBC81D
Copy CRC 6CBBC81D
Cannot be verified as accurate (confidence 1) [D8ABC5F3], AccurateRip returned [D8388345] (AR v2)
Copy OK
10 track(s) accurately ripped
5 track(s) could not be verified as accurate
Some tracks could not be verified as accurate
No errors occurred
End of status report
---- CUETools DB Plugin V2.1.3
[CTDB TOCID: rOIdLsdsNAjxH0mnThBQOMwto9c-] found, Submit result: rOIdLsdsNAjxH0mnThBQOMwto9c- has been confirmed
[031949cd] (1/1) Accurately ripped
==== Log checksum C17D914AB1B58D13AAB996FBEEB935597D686A34EE68CB6CE104C04579D5E451 ====
 
Содержание индексной карты (.CUE)
REM GENRE Ethnic
REM DATE 2007
REM DISCID C3096A0F
REM COMMENT "ExactAudioCopy v1.0b3"
PERFORMER "Savina Yannatou"
TITLE "Nanourismata (Traditional Lullabies)"
FILE "01 - Ypne Pou Pernis Ta Mikra (Slumber That Puttest The Little Ones To Sleep).wav" WAVE
TRACK 01 AUDIO
TITLE "Ypne Pou Pernis Ta Mikra (Slumber That Puttest The Little Ones To Sleep)"
PERFORMER "Savina Yannatou"
INDEX 01 00:00:00
TRACK 02 AUDIO
TITLE "Tiki-Tiki-Tiki"
PERFORMER "Savina Yannatou"
INDEX 00 03:21:63
FILE "02 - Tiki-Tiki-Tiki.wav" WAVE
INDEX 01 00:00:00
TRACK 03 AUDIO
TITLE "Nani Tou Riga To Pedi (Hush-A-Bye The Regent's Child)"
PERFORMER "Savina Yannatou"
INDEX 00 02:36:28
FILE "03 - Nani Tou Riga To Pedi (Hush-A-Bye The Regent's Child).wav" WAVE
INDEX 01 00:00:00
TRACK 04 AUDIO
TITLE "Astrapsen I Anatoli (The Rising Sun Is All Ablaze)"
PERFORMER "Savina Yannatou"
INDEX 00 02:20:05
FILE "04 - Astrapsen I Anatoli (The Rising Sun Is All Ablaze).wav" WAVE
INDEX 01 00:00:00
TRACK 05 AUDIO
TITLE "Ypne Pou Pernis Ta Mikra (Slumber That Puttest The Little Ones To Sleep)"
PERFORMER "Savina Yannatou"
INDEX 00 01:50:66
FILE "05 - Ypne Pou Pernis Ta Mikra (Slumber That Puttest The Little Ones To Sleep).wav" WAVE
INDEX 01 00:00:00
TRACK 06 AUDIO
TITLE "Nani Tou Riga To Pedi (Hush-A-Bye The Regent's Child)"
PERFORMER "Savina Yannatou"
INDEX 00 03:21:49
FILE "06 - Nani Tou Riga To Pedi (Hush-A-Bye The Regent's Child).wav" WAVE
INDEX 01 00:00:00
TRACK 07 AUDIO
TITLE "Kimisou, Angeloudi Mou (Go To Sleep My Little Angel)"
PERFORMER "Savina Yannatou"
INDEX 00 01:59:63
FILE "07 - Kimisou, Angeloudi Mou (Go To Sleep My Little Angel).wav" WAVE
INDEX 01 00:00:00
TRACK 08 AUDIO
TITLE "Nani To Garoufalo Mou (Go To Bye-Byes My Sweet-Smelling Carnation)"
PERFORMER "Savina Yannatou"
INDEX 00 03:39:23
FILE "08 - Nani To Garoufalo Mou (Go To Bye-Byes My Sweet-Smelling Carnation).wav" WAVE
INDEX 01 00:00:00
TRACK 09 AUDIO
TITLE "Ela, Ypne Mou, Pare To (Slumber, Draw Nigh)"
PERFORMER "Savina Yannatou"
INDEX 00 03:27:15
FILE "09 - Ela, Ypne Mou, Pare To (Slumber, Draw Nigh).wav" WAVE
INDEX 01 00:00:00
TRACK 10 AUDIO
TITLE "Aide Kimisou, Kori Mou (Go to Sleep My Little Girlie)"
PERFORMER "Savina Yannatou"
INDEX 00 01:09:06
FILE "10 - Aide Kimisou, Kori Mou (Go to Sleep My Little Girlie).wav" WAVE
INDEX 01 00:00:00
TRACK 11 AUDIO
TITLE "Pare To, Ypne, To Pedi (Slumber, Take My Little Child)"
PERFORMER "Savina Yannatou"
INDEX 00 02:15:58
FILE "11 - Pare To, Ypne, To Pedi (Slumber, Take My Little Child).wav" WAVE
INDEX 01 00:00:00
TRACK 12 AUDIO
TITLE "Kimate Mena O Skrinos Mou (My Lily Is Fast Asleep)"
PERFORMER "Savina Yannatou"
INDEX 00 02:12:59
FILE "12 - Kimate Mena O Skrinos Mou (My Lily Is Fast Asleep).wav" WAVE
INDEX 01 00:00:00
TRACK 13 AUDIO
TITLE "Ela, Ypne, Kemise To (Slumber, Put My Little One to Sleep)"
PERFORMER "Savina Yannatou"
INDEX 00 02:19:54
FILE "13 - Ela, Ypne, Kemise To (Slumber, Put My Little One to Sleep).wav" WAVE
INDEX 01 00:00:00
TRACK 14 AUDIO
TITLE "Ela, Ypne, Ke Pare To (Slumber, Take My Baby Sweet)"
PERFORMER "Savina Yannatou"
INDEX 00 01:19:04
FILE "14 - Ela, Ypne, Ke Pare To (Slumber, Take My Baby Sweet).wav" WAVE
INDEX 01 00:00:00
TRACK 15 AUDIO
TITLE "Nanourisma (Lullaby)"
PERFORMER "Savina Yannatou"
INDEX 00 04:57:03
FILE "15 - Nanourisma (Lullaby).wav" WAVE
INDEX 01 00:00:00
 
1986 - Zi O Vasilias Alexandros; (Dreams Of The Mermaid - Is King Alexander Alive?) (1998 Re-release) - (00:40:05) ★●★ LYRΑ/Greece/3444
01. Proino Se Xeni Poli (A Morn Spent In A Foreign City) (03:42)
02. Kitrino-Ble (Yellow-Blue) (03:10)
03. Apostasi (Distance) (03:35)
04. Optiki Apati (Optical Illusion) (02:10)
05. Telos (The End) (03:25)
06. Ke Pes Pos... (Suppose That You...) (04:25)
07. Zi O Vasilias Alexandros; (Is King Alexander Alive?) (01:12)
08. Efivia (Adolescence) (03:26)
09. Argi Lipsi (Slow Take) (02:55)
10. Me Ton Bill Evans Sto Pick-Up (With Bill Evans On The Record Player) (03:44)
11. Samothraki (Samothrace) (03:25)
12. Zografies (Sketches) (02:48)
13. Simioma (Note) (02:08)
 
Лог создания рипа
Exact Audio Copy V1.0 beta 3 from 29. August 2011
EAC extraction logfile from 13. May 2015, 1:55
Savina Yannatou / Zi O Vasilias Alexandros; (Dreams Of The Mermaid - Is King Alexander Alive?)
Used drive : TSSTcorpCDDVDW SN-208BB Adapter: 0 ID: 0
Read mode : Secure
Utilize accurate stream : Yes
Defeat audio cache : Yes
Make use of C2 pointers : No
Read offset correction : 6
Overread into Lead-In and Lead-Out : No
Fill up missing offset samples with silence : Yes
Delete leading and trailing silent blocks : No
Null samples used in CRC calculations : Yes
Used interface : Native Win32 interface for Win NT & 2000
Gap handling : Appended to previous track
Used output format : User Defined Encoder
Selected bitrate : 1024 kBit/s
Quality : High
Add ID3 tag : No
Command line compressor : C:\Program Files (x86)\Exact Audio Copy\Flac\flac.exe
Additional command line options : -8 -V -T "ARTIST=%artist%" -T "TITLE=%title%" -T "ALBUM=%albumtitle%" -T "DATE=%year%" -T "TRACKNUMBER=%tracknr%" -T "GENRE=%genre%" -T "PERFORMER=%albuminterpret%" -T "COMPOSER=%composer%" %haslyrics%--tag-from-file=LYRICS="%lyricsfile%"%haslyrics% -T "ALBUMARTIST=%albumartist%" -T "DISCNUMBER=%cdnumber%" -T "TOTALDISCS=%totalcds%" -T "TOTALTRACKS=%numtracks%" -T "COMMENT=%comment%" %source% -o %dest%
TOC of the extracted CD
Track | Start | Length | Start sector | End sector
---------------------------------------------------------
1 | 0:00.00 | 3:41.42 | 0 | 16616
2 | 3:41.42 | 3:09.61 | 16617 | 30852
3 | 6:51.28 | 3:34.63 | 30853 | 46965
4 | 10:26.16 | 2:10.25 | 46966 | 56740
5 | 12:36.41 | 3:25.22 | 56741 | 72137
6 | 16:01.63 | 4:24.62 | 72138 | 91999
7 | 20:26.50 | 1:12.21 | 92000 | 97420
8 | 21:38.71 | 3:25.43 | 97421 | 112838
9 | 25:04.39 | 2:55.35 | 112839 | 125998
10 | 27:59.74 | 3:44.22 | 125999 | 142820
11 | 31:44.21 | 3:25.09 | 142821 | 158204
12 | 35:09.30 | 2:48.07 | 158205 | 170811
13 | 37:57.37 | 2:08.34 | 170812 | 180445
Track 1
Filename D:\CASHIKO\01. Proino Se Xeni Poli (A Morn Spent In A Foreign City).wav
Pre-gap length 0:00:02.00
Peak level 97.9 %
Extraction speed 1.7 X
Track quality 100.0 %
Test CRC A9A1FF84
Copy CRC A9A1FF84
Accurately ripped (confidence 2) [79AF8CB5] (AR v2)
Copy OK
Track 2
Filename D:\CASHIKO\02. Kitrino-Ble (Yellow-Blue).wav
Pre-gap length 0:00:01.60
Peak level 95.5 %
Extraction speed 1.8 X
Track quality 100.0 %
Test CRC 9EE03B1B
Copy CRC 9EE03B1B
Cannot be verified as accurate (confidence 2) [82D8CEAD], AccurateRip returned [B3998275] (AR v2)
Copy OK
Track 3
Filename D:\CASHIKO\03. Apostasi (Distance).wav
Pre-gap length 0:00:01.60
Peak level 98.8 %
Extraction speed 2.0 X
Track quality 100.0 %
Test CRC 67BF4765
Copy CRC 67BF4765
Accurately ripped (confidence 2) [42427AF8] (AR v2)
Copy OK
Track 4
Filename D:\CASHIKO\04. Optiki Apati (Optical Illusion).wav
Pre-gap length 0:00:01.60
Peak level 80.5 %
Extraction speed 1.9 X
Track quality 100.0 %
Test CRC 7CB767A0
Copy CRC 7CB767A0
Accurately ripped (confidence 2) [9E405BF4] (AR v2)
Copy OK
Track 5
Filename D:\CASHIKO\05. Telos (The End).wav
Pre-gap length 0:00:01.60
Peak level 83.0 %
Extraction speed 2.2 X
Track quality 100.0 %
Test CRC 6ED1DF1A
Copy CRC 6ED1DF1A
Accurately ripped (confidence 2) [C40F1698] (AR v2)
Copy OK
Track 6
Filename D:\CASHIKO\06. Ke Pes Pos... (Suppose That You...).wav
Pre-gap length 0:00:01.60
Peak level 94.6 %
Extraction speed 2.4 X
Track quality 100.0 %
Test CRC A4E5A40B
Copy CRC A4E5A40B
Accurately ripped (confidence 2) [0622876C] (AR v2)
Copy OK
Track 7
Filename D:\CASHIKO\07. Zi O Vasilias Alexandros; (Is King Alexander Alive).wav
Pre-gap length 0:00:01.60
Peak level 72.6 %
Extraction speed 1.9 X
Track quality 100.0 %
Test CRC 72451E73
Copy CRC 72451E73
Accurately ripped (confidence 2) [756102FF] (AR v2)
Copy OK
Track 8
Filename D:\CASHIKO\08. Efivia (Adolescence).wav
Pre-gap length 0:00:01.60
Peak level 79.0 %
Extraction speed 2.5 X
Track quality 100.0 %
Test CRC BC5CB998
Copy CRC BC5CB998
Accurately ripped (confidence 2) [F3D83D60] (AR v2)
Copy OK
Track 9
Filename D:\CASHIKO\09. Argi Lipsi (Slow Take).wav
Pre-gap length 0:00:01.60
Peak level 79.3 %
Extraction speed 2.5 X
Track quality 100.0 %
Test CRC 23F3780B
Copy CRC 23F3780B
Accurately ripped (confidence 2) [5ADC7EBE] (AR v2)
Copy OK
Track 10
Filename D:\CASHIKO\10. Me Ton Bill Evans Sto Pick-Up (With Bill Evans On The Record Player).wav
Pre-gap length 0:00:01.58
Peak level 94.1 %
Extraction speed 2.7 X
Track quality 100.0 %
Test CRC 2A2EBAA6
Copy CRC 2A2EBAA6
Accurately ripped (confidence 2) [809B678D] (AR v2)
Copy OK
Track 11
Filename D:\CASHIKO\11. Samothraki (Samothrace).wav
Pre-gap length 0:00:01.60
Peak level 98.0 %
Extraction speed 2.8 X
Track quality 100.0 %
Test CRC 17A9FAD9
Copy CRC 17A9FAD9
Accurately ripped (confidence 2) [BD70FF27] (AR v2)
Copy OK
Track 12
Filename D:\CASHIKO\12. Zografies (Sketches).wav
Pre-gap length 0:00:01.60
Peak level 84.0 %
Extraction speed 2.7 X
Track quality 100.0 %
Test CRC 3B2B5995
Copy CRC 3B2B5995
Accurately ripped (confidence 2) [4475AD05] (AR v2)
Copy OK
Track 13
Filename D:\CASHIKO\13. Simioma (Note).wav
Pre-gap length 0:00:01.60
Peak level 96.8 %
Extraction speed 2.1 X
Track quality 99.9 %
Test CRC 4B558E1D
Copy CRC 4B558E1D
Accurately ripped (confidence 2) [11D83377] (AR v2)
Copy OK
12 track(s) accurately ripped
1 track(s) could not be verified as accurate
Some tracks could not be verified as accurate
No errors occurred
End of status report
==== Log checksum AA71C38040AA8136BA1E5D6C9FED81AFC46CCFBCCA78254D6BDED778ED225F69 ====
 
Содержание индексной карты (.CUE)
REM GENRE Entehno
REM DATE 1998
REM DISCID 9D09650D
REM COMMENT "ExactAudioCopy v1.0b3"
CATALOG 0000000000000
PERFORMER "Savina Yannatou"
TITLE "Zi O Vasilias Alexandros; (Dreams Of The Mermaid - Is King Alexander Alive?)"
FILE "01. Proino Se Xeni Poli (A Morn Spent In A Foreign City).wav" WAVE
TRACK 01 AUDIO
TITLE "Proino Se Xeni Poli (A Morn Spent In A Foreign City)"
PERFORMER "Savina Yannatou"
FLAGS DCP
INDEX 01 00:00:00
TRACK 02 AUDIO
TITLE "Kitrino-Ble (Yellow-Blue)"
PERFORMER "Savina Yannatou"
FLAGS DCP
INDEX 00 03:39:72
FILE "02. Kitrino-Ble (Yellow-Blue).wav" WAVE
INDEX 01 00:00:00
TRACK 03 AUDIO
TITLE "Apostasi (Distance)"
PERFORMER "Savina Yannatou"
FLAGS DCP
INDEX 00 03:08:16
FILE "03. Apostasi (Distance).wav" WAVE
INDEX 01 00:00:00
TRACK 04 AUDIO
TITLE "Optiki Apati (Optical Illusion)"
PERFORMER "Savina Yannatou"
FLAGS DCP
INDEX 00 03:33:18
FILE "04. Optiki Apati (Optical Illusion).wav" WAVE
INDEX 01 00:00:00
TRACK 05 AUDIO
TITLE "Telos (The End)"
PERFORMER "Savina Yannatou"
FLAGS DCP
INDEX 00 02:08:55
FILE "05. Telos (The End).wav" WAVE
INDEX 01 00:00:00
TRACK 06 AUDIO
TITLE "Ke Pes Pos... (Suppose That You...)"
PERFORMER "Savina Yannatou"
FLAGS DCP
INDEX 00 03:23:52
FILE "06. Ke Pes Pos... (Suppose That You...).wav" WAVE
INDEX 01 00:00:00
TRACK 07 AUDIO
TITLE "Zi O Vasilias Alexandros; (Is King Alexander Alive?)"
PERFORMER "Savina Yannatou"
FLAGS DCP
INDEX 00 04:23:17
FILE "07. Zi O Vasilias Alexandros; (Is King Alexander Alive).wav" WAVE
INDEX 01 00:00:00
TRACK 08 AUDIO
TITLE "Efivia (Adolescence)"
PERFORMER "Savina Yannatou"
FLAGS DCP
INDEX 00 01:10:51
FILE "08. Efivia (Adolescence).wav" WAVE
INDEX 01 00:00:00
TRACK 09 AUDIO
TITLE "Argi Lipsi (Slow Take)"
PERFORMER "Savina Yannatou"
FLAGS DCP
INDEX 00 03:23:73
FILE "09. Argi Lipsi (Slow Take).wav" WAVE
INDEX 01 00:00:00
TRACK 10 AUDIO
TITLE "Me Ton Bill Evans Sto Pick-Up (With Bill Evans On The Record Player)"
PERFORMER "Savina Yannatou"
FLAGS DCP
INDEX 00 02:53:66
FILE "10. Me Ton Bill Evans Sto Pick-Up (With Bill Evans On The Record Player).wav" WAVE
INDEX 01 00:00:00
TRACK 11 AUDIO
TITLE "Samothraki (Samothrace)"
PERFORMER "Savina Yannatou"
FLAGS DCP
INDEX 00 03:42:52
FILE "11. Samothraki (Samothrace).wav" WAVE
INDEX 01 00:00:00
TRACK 12 AUDIO
TITLE "Zografies (Sketches)"
PERFORMER "Savina Yannatou"
FLAGS DCP
INDEX 00 03:23:39
FILE "12. Zografies (Sketches).wav" WAVE
INDEX 01 00:00:00
TRACK 13 AUDIO
TITLE "Simioma (Note)"
PERFORMER "Savina Yannatou"
FLAGS DCP
INDEX 00 02:46:37
FILE "13. Simioma (Note).wav" WAVE
INDEX 01 00:00:00
 
2000 - Rosa Das Rosas - (00:40:14) ★●★ LYRΑ/Greece/ML 0695
01. Like love (01:05)
02. A los banos dell amor (02:39)
(Spanish amon, 15th century)
03. Along the edge of his loves (04:37)
04. Into his past (orschestral) (04:25)
05. Like love or light (02:28)
06. The miracles (02:45)
07. Two faced moon (06:19)
08. A hint of moon (04:40)
09. Rosa das rosas (05:06)
(Song to the Virgin, from the collection of Alfonse the Wise, Spain, 13th century)
10. Wet roses (03:40)
11. Black moons (02:30)
 
Info
Savina Yannatou: Voice, Synthesizer, Music
Thimios Papadopoulos: flute, clarinet, sax
Stelios Zachariou: percussion
Panos Ghekas: Synthesizer (7, 8)
Vanghelis Pepas: electric bass (6, 11)
Tassos Missyrlis: violoncello (2)
Vanghelis Karypis: percussion (4)
Цитата:
Most pieces comprised in the present CD were composed in 1989 and 1990 exclusively for "G's Musical Workshop", a radio programme produced by Michalis Gregoroiu for Greek Radio Three, which unfortunately , ceased to broadcast in 1994. This radio progamme offered the oppurtunity to composers and musicians alike to experiment with music, in front of or with no audience at all in the studio, composing musical pieces in two days time only. Those pieces of mine we re-recorderd and completed so that they could be released through the present CD ten years after their initial composition. I set to music lyrics and notes by my sister Sophia Yannatou (apart from the "Black Moons"). I also made use of two melodies dating back to the middle ages and the Renaissance, namely "Rosa Das Rosas" and "A los banos dell amor" and deemed appropriate to retain the original orchestration in all tracks, since any sort of alteration would seem to upset the inner balance of the present release.
Savina Yannatou
 
Лог создания рипа
Exact Audio Copy V1.0 beta 1 from 15. November 2010
EAC extraction logfile from 23. April 2011, 19:47
Savina Yannatou / Rosa das rosas
Used drive : Optiarc DVD RW AD-7200A Adapter: 2 ID: 0
Read mode : Secure
Utilize accurate stream : Yes
Defeat audio cache : Yes
Make use of C2 pointers : No
Read offset correction : 48
Overread into Lead-In and Lead-Out : No
Fill up missing offset samples with silence : Yes
Delete leading and trailing silent blocks : No
Null samples used in CRC calculations : Yes
Used interface : Installed external ASPI interface
Gap handling : Appended to previous track
Used output format : User Defined Encoder
Selected bitrate : 896 kBit/s
Quality : High
Add ID3 tag : No
Command line compressor : C:\Program Files\Exact Audio Copy\Flac\flac.exe
Additional command line options : -8 -V -T "ARTIST=%a" -T "TITLE=%t" -T "ALBUM=%g" -T "DATE=%y" -T "TRACKNUMBER=%n" -T "TOTALTRACKS=%x" -T "GENRE=%m" -T "ALBUMARTIST=%v" -T "ALBUM ARTIST=%v" -T "COMMENT=EAC Secure Mode,Test&Copy,AccurateRip,FLAC -8" %s
TOC of the extracted CD
Track | Start | Length | Start sector | End sector
---------------------------------------------------------
1 | 0:00.00 | 1:04.50 | 0 | 4849
2 | 1:04.50 | 2:39.15 | 4850 | 16789
3 | 3:43.65 | 4:37.30 | 16790 | 37594
4 | 8:21.20 | 4:24.45 | 37595 | 57439
5 | 12:45.65 | 2:27.60 | 57440 | 68524
6 | 15:13.50 | 2:45.32 | 68525 | 80931
7 | 17:59.07 | 6:18.43 | 80932 | 109324
8 | 24:17.50 | 4:40.15 | 109325 | 130339
9 | 28:57.65 | 5:06.22 | 130340 | 153311
10 | 34:04.12 | 3:39.50 | 153312 | 169786
11 | 37:43.62 | 2:29.65 | 169787 | 181026
Track 1
Filename H:\Rips\01 - Like love.wav
Pre-gap length 0:00:02.00
Peak level 94.3 %
Extraction speed 1.6 X
Track quality 100.0 %
Test CRC 7AC75DDA
Copy CRC 7AC75DDA
Track not present in AccurateRip database
Copy OK
Track 2
Filename H:\Rips\02 - A los banos dell amor.wav
Peak level 89.8 %
Extraction speed 2.3 X
Track quality 100.0 %
Test CRC CA0008D4
Copy CRC CA0008D4
Track not present in AccurateRip database
Copy OK
Track 3
Filename H:\Rips\03 - Along the edge of his loves.wav
Peak level 99.1 %
Extraction speed 2.7 X
Track quality 100.0 %
Test CRC 5CAC4E31
Copy CRC 5CAC4E31
Track not present in AccurateRip database
Copy OK
Track 4
Filename H:\Rips\04 - Into his past (orschestral).wav
Peak level 97.8 %
Extraction speed 2.9 X
Track quality 100.0 %
Test CRC 46324462
Copy CRC 46324462
Track not present in AccurateRip database
Copy OK
Track 5
Filename H:\Rips\05 - Like love or light.wav
Peak level 93.5 %
Extraction speed 2.8 X
Track quality 100.0 %
Test CRC 545EBBD9
Copy CRC 545EBBD9
Track not present in AccurateRip database
Copy OK
Track 6
Filename H:\Rips\06 - The miracles.wav
Peak level 87.5 %
Extraction speed 3.1 X
Track quality 100.0 %
Test CRC A32FC19C
Copy CRC A32FC19C
Track not present in AccurateRip database
Copy OK
Track 7
Filename H:\Rips\07 - Two faced moon.wav
Peak level 97.2 %
Extraction speed 3.6 X
Track quality 100.0 %
Test CRC 5700CA86
Copy CRC 5700CA86
Track not present in AccurateRip database
Copy OK
Track 8
Filename H:\Rips\08 - A hint of moon.wav
Peak level 79.4 %
Extraction speed 3.7 X
Track quality 100.0 %
Test CRC 621D9B28
Copy CRC 621D9B28
Track not present in AccurateRip database
Copy OK
Track 9
Filename H:\Rips\09 - Rosa das rosas.wav
Peak level 96.4 %
Extraction speed 4.0 X
Track quality 100.0 %
Test CRC B46E333D
Copy CRC B46E333D
Track not present in AccurateRip database
Copy OK
Track 10
Filename H:\Rips\10 - Wet roses.wav
Peak level 98.0 %
Extraction speed 4.0 X
Track quality 100.0 %
Test CRC A7E200AC
Copy CRC A7E200AC
Track not present in AccurateRip database
Copy OK
Track 11
Filename H:\Rips\11 - Black moons.wav
Peak level 94.9 %
Extraction speed 3.8 X
Track quality 100.0 %
Test CRC BC308364
Copy CRC BC308364
Track not present in AccurateRip database
Copy OK
None of the tracks are present in the AccurateRip database
No errors occurred
End of status report
==== Log checksum 9B20E14FCD0A839B940F3192EDC7F8CA43FB8214A4F589CF96F26BAA5377F6F0 ====
 
Содержание индексной карты (.CUE)
REM GENRE World
REM DATE 2000
REM DISCID 8E096D0B
REM COMMENT "ExactAudioCopy v1.0b1"
PERFORMER "Savina Yannatou"
TITLE "Rosa das rosas"
FILE "01 - Like love.wav" WAVE
TRACK 01 AUDIO
TITLE "Like love"
PERFORMER "Savina Yannatou"
INDEX 01 00:00:00
FILE "02 - A los banos dell amor.wav" WAVE
TRACK 02 AUDIO
TITLE "A los banos dell amor"
PERFORMER "Savina Yannatou"
INDEX 01 00:00:00
FILE "03 - Along the edge of his loves.wav" WAVE
TRACK 03 AUDIO
TITLE "Along the edge of his loves"
PERFORMER "Savina Yannatou"
INDEX 01 00:00:00
FILE "04 - Into his past (orschestral).wav" WAVE
TRACK 04 AUDIO
TITLE "Into his past (orschestral)"
PERFORMER "Savina Yannatou"
INDEX 01 00:00:00
FILE "05 - Like love or light.wav" WAVE
TRACK 05 AUDIO
TITLE "Like love or light"
PERFORMER "Savina Yannatou"
INDEX 01 00:00:00
FILE "06 - The miracles.wav" WAVE
TRACK 06 AUDIO
TITLE "The miracles"
PERFORMER "Savina Yannatou"
INDEX 01 00:00:00
FILE "07 - Two faced moon.wav" WAVE
TRACK 07 AUDIO
TITLE "Two faced moon"
PERFORMER "Savina Yannatou"
INDEX 01 00:00:00
FILE "08 - A hint of moon.wav" WAVE
TRACK 08 AUDIO
TITLE "A hint of moon"
PERFORMER "Savina Yannatou"
INDEX 01 00:00:00
FILE "09 - Rosa das rosas.wav" WAVE
TRACK 09 AUDIO
TITLE "Rosa das rosas"
PERFORMER "Savina Yannatou"
INDEX 01 00:00:00
FILE "10 - Wet roses.wav" WAVE
TRACK 10 AUDIO
TITLE "Wet roses"
PERFORMER "Savina Yannatou"
INDEX 01 00:00:00
FILE "11 - Black moons.wav" WAVE
TRACK 11 AUDIO
TITLE "Black moons"
PERFORMER "Savina Yannatou"
INDEX 01 00:00:00
 
2007 - Mousiki Domation (Musique Des Chambres) - (00:53:02) ★●★ LYRΑ/Greece/1088
01. Ήτανε Ένα Ποίημα Α' (00:30)
02. Κύριε (02:08)
03. Ήτανε Ένα Ποίημα Β' (02:02)
04. Το Παιδί Και Οι Ληστές (03:47)
05. Και Η Μνήμη Ενός Ήλιου (02:22)
06. Σ' Ένα Ανοιξιάτικο Λιβάδι (05:09)
07. Άνοιξέ Μου (06:58)
08. Κάποιο Δειλινό Α' (03:12)
09. Η Μαργαρίτα Δεν Έφτασε Ποτέ (01:29)
10. Είναι Κανείς Εδώ; (01:46)
11. Σάσι ... - Μπλουζ (02:45)
12. Κρυμμένος Τη Ζωή Περνάς (01:57)
13. Εγώ (02:25)
14. Yo (03:54)
15. Οι Παραλογισμοί Της Ιωάννας (03:40)
16. Το Ταξίδι (02:53)
17. Ο Χώρος Και Τα Πράγματα (02:56)
18. Κάποιο Δειλινό Β' (03:09)
 
Info
Musicians:
Heracles Vavatsikas - accordion
Dionisis Vervitsiotis - violin
Nikos Veliotis - cello
Michalis Siganides - double bass
Narration:
Savina Yannatou, Giorgos Koropoulis, Pedro Olalla
Singers:
Savina Yannatou, Dimitris Papanikolaou, Kostas Zafiris
Participation:
Yannis Alexandris, Kostas Vomvolos
 
Audiochecker
AUDIOCHECKER v2.0 beta (build 457) - by Dester - opdester@freemail.hu
~~~~~~~~~~~~~~~~~~~~~~~~~~~~~~~~~~
Started at: Thursday, 14. 05. 2015. - 23:25.24
18 files found
01 -===- C:\Users\CASHIKO\Downloads\2007 - Mousiki Domation (Musique Des Chambres)\01. ¹ôáíå ¸íá Ðïßçìá Á'.flac
Extracted successfully
Conclusion: this track is CDDA with probability 43%
Tempfile successfully deleted.
02 -===- C:\Users\CASHIKO\Downloads\2007 - Mousiki Domation (Musique Des Chambres)\02. Êýñéå.flac
Extracted successfully
Conclusion: this track is CDDA with probability 100%
Tempfile successfully deleted.
03 -===- C:\Users\CASHIKO\Downloads\2007 - Mousiki Domation (Musique Des Chambres)\03. ¹ôáíå ¸íá Ðïßçìá Â'.flac
Extracted successfully
Conclusion: this track is CDDA with probability 42%
Tempfile successfully deleted.
04 -===- C:\Users\CASHIKO\Downloads\2007 - Mousiki Domation (Musique Des Chambres)\04. Ôï Ðáéäß Êáé Ïé ËçóôÝò.flac
Extracted successfully
Conclusion: this track is CDDA with probability 100%
Tempfile successfully deleted.
05 -===- C:\Users\CASHIKO\Downloads\2007 - Mousiki Domation (Musique Des Chambres)\05. Êáé Ç ÌíÞìç Åíüò ¹ëéïõ.flac
Extracted successfully
Conclusion: this track is CDDA with probability 100%
Tempfile successfully deleted.
06 -===- C:\Users\CASHIKO\Downloads\2007 - Mousiki Domation (Musique Des Chambres)\06. Ó' ¸íá ÁíïéîéÜôéêï ËéâÜäé.flac
Extracted successfully
Conclusion: this track is CDDA with probability 100%
Tempfile successfully deleted.
07 -===- C:\Users\CASHIKO\Downloads\2007 - Mousiki Domation (Musique Des Chambres)\07. ¢íïéîÝ Ìïõ.flac
Extracted successfully
Conclusion: this track is CDDA with probability 100%
Tempfile successfully deleted.
08 -===- C:\Users\CASHIKO\Downloads\2007 - Mousiki Domation (Musique Des Chambres)\08. ÊÜðïéï Äåéëéíü Á'.flac
Extracted successfully
Conclusion: this track is CDDA with probability 100%
Tempfile successfully deleted.
09 -===- C:\Users\CASHIKO\Downloads\2007 - Mousiki Domation (Musique Des Chambres)\09. Ç Ìáñãáñßôá Äåí ¸öôáóå ÐïôÝ.flac
Extracted successfully
Conclusion: this track is CDDA with probability 100%
Tempfile successfully deleted.
10 -===- C:\Users\CASHIKO\Downloads\2007 - Mousiki Domation (Musique Des Chambres)\10. Åßíáé Êáíåßò Åäþ;.flac
Extracted successfully
Conclusion: this track is CDDA with probability 100%
Tempfile successfully deleted.
11 -===- C:\Users\CASHIKO\Downloads\2007 - Mousiki Domation (Musique Des Chambres)\11. Sasi... Blues.flac
Extracted successfully
Conclusion: this track is CDDA with probability 100%
Tempfile successfully deleted.
12 -===- C:\Users\CASHIKO\Downloads\2007 - Mousiki Domation (Musique Des Chambres)\12. ÊñõììÝíïò Ôç ÆùÞ ÐåñíÜò.flac
Extracted successfully
Conclusion: this track is CDDA with probability 100%
Tempfile successfully deleted.
13 -===- C:\Users\CASHIKO\Downloads\2007 - Mousiki Domation (Musique Des Chambres)\13. Åãþ.flac
Extracted successfully
Conclusion: this track is CDDA with probability 100%
Tempfile successfully deleted.
14 -===- C:\Users\CASHIKO\Downloads\2007 - Mousiki Domation (Musique Des Chambres)\14. Yo.flac
Extracted successfully
Conclusion: this track is CDDA with probability 100%
Tempfile successfully deleted.
15 -===- C:\Users\CASHIKO\Downloads\2007 - Mousiki Domation (Musique Des Chambres)\15. Ïé Ðáñáëïãéóìïß Ôçò ÉùÜííáò.flac
Extracted successfully
Conclusion: this track is CDDA with probability 100%
Tempfile successfully deleted.
16 -===- C:\Users\CASHIKO\Downloads\2007 - Mousiki Domation (Musique Des Chambres)\16. Ôï Ôáîßäé.flac
Extracted successfully
Conclusion: this track is CDDA with probability 100%
Tempfile successfully deleted.
17 -===- C:\Users\CASHIKO\Downloads\2007 - Mousiki Domation (Musique Des Chambres)\17. Ï ×þñïò Êáé Ôá ÐñÜãìáôá.flac
Extracted successfully
Conclusion: this track is MPEG with probability 95%
Tempfile successfully deleted.
18 -===- C:\Users\CASHIKO\Downloads\2007 - Mousiki Domation (Musique Des Chambres)\18. ÊÜðïéï Äåéëéíü Â'.flac
Extracted successfully
Conclusion: this track is CDDA with probability 100%
Tempfile successfully deleted.
Finished at: Thursday, 14. 05. 2015. - 23:35.36 (operation time: 0:10.11)
18:44
594
Нет комментариев. Ваш будет первым!