Поиск

(World Fusion, Ethnic Jazz, Avant-Garde) Orquesta De Las Nubes - Me Paro Cuando Suena - 1983, FLAC (tracks+.cue), lossless

(World Fusion, Ethnic Jazz, Avant-Garde) Orquesta De Las Nubes - Me Paro Cuando Suena - 1983, FLAC (tracks+.cue), lossless
Треклист:
Orquesta De Las Nubes - Me Paro Cuando Suena
Жанр: World Fusion, Ethnic Jazz, Avant-Garde
Год выпуска диска: 1983
Производитель диска: Spain, Linterna Musica
Аудио кодек: FLAC
Тип рипа: tracks+.cue
Битрейт аудио: lossless
Продолжительность: 37:25
Трэклист:
01 1 Voces 2:42
2 Parte I 7:38
3 Divertimento Primero 2:43
4 Parte II 5:22
5 Bocinas-Chack-Intermedio Primero 1:07
02 6 Intermedio Segundo-Parte III 1:26
03 7 Divertimendo Segundo 6:09
04 8 Parte IV 3:30
9 Tiestos 4:06
05 10 Final 2:43
Доп. информация:
Музыка этой группы с трудом поддаётся жанровой классификации. Из множества жанров, которыми их награждают на различных сайтах в интернете, я остановился на вышеуказанных. Хотя это, конечно, не совсем джаз. Кроме того встречал такие определения этой музыки: folk, world, new age, latin jazz, classical, postmodern, progressive rock, experimental и даже free jazz (наверное, самое далёкое от сути определение).Короче, слушайте сами - решайте сами...
Orquesta De Las Nubes fue una oscura banda experimental liderada por Suso Sáiz que editó tres discos en los '80 (Orquesta De Las Nubes was an obscure 80's experimental band led by Suso Sáiz that released three albums in the 80's)
Maria Villa: voz marimbula logdrum chekere tiestos reclamos campanabudista bocinas
Pedro Estevan: marimba vibrafono mizhar congas pandero tiestos karkabus pandereta campanas gongs reclamos bocinas percusion voces
Suso Saiz: guitarras flautaschinas ocarinas balafon tiestos bosinas percusion voces
Todas las composiciones son de ORQUESTA DE LAS NUBES
 
Отчёт EAC
Exact Audio Copy V0.99 prebeta 5 from 4. May 2009
EAC extraction logfile from 1. September 2009, 23:16
Orquesta de las nubes / Me paro cuando suena
Used drive : ASUS DRW-20B1ST Adapter: 3 ID: 0
Read mode : Secure
Utilize accurate stream : Yes
Defeat audio cache : Yes
Make use of C2 pointers : No
Read offset correction : 6
Overread into Lead-In and Lead-Out : No
Fill up missing offset samples with silence : Yes
Delete leading and trailing silent blocks : No
Null samples used in CRC calculations : Yes
Used interface : Native Win32 interface for Win NT & 2000
Gap handling : Appended to previous track
Used output format : User Defined Encoder
Selected bitrate : 768 kBit/s
Quality : High
Add ID3 tag : No
Command line compressor : C:\Program Files\Exact Audio Copy\FLAC\FLAC.EXE
Additional command line options : -6 -V -T "ARTIST=%a" -T "TITLE=%t" -T "ALBUM=%g" -T "DATE=%y" -T "TRACKNUMBER=%n" -T "GENRE=%m" -T "COMMENT=%e" %s -o %d
TOC of the extracted CD
Track | Start | Length | Start sector | End sector
---------------------------------------------------------
1 | 0:00.00 | 19:32.00 | 0 | 87899
2 | 19:32.00 | 1:30.00 | 87900 | 94649
3 | 21:02.00 | 6:07.00 | 94650 | 122174
4 | 27:09.00 | 7:41.00 | 122175 | 156749
5 | 34:50.00 | 2:35.00 | 156750 | 168374
Track 1
Filename I:\Torrent\Раздачи\Orquesta de las nubes - Me paro cuando suena (1983) [FLAC]\01. Voces, Parte I, Divertimento Primero, Parte II, Bocinas-Chack-Intermedio Primero.wav
Pre-gap length 0:00:02.00
Peak level 100.0 %
Track quality 100.0 %
Test CRC DD814E0A
Copy CRC DD814E0A
Track not present in AccurateRip database
Copy OK
Track 2
Filename I:\Torrent\Раздачи\Orquesta de las nubes - Me paro cuando suena (1983) [FLAC]\02. Intermedio Segndo-Parte III.wav
Pre-gap length 0:00:03.00
Peak level 92.8 %
Track quality 99.8 %
Test CRC 109B9519
Copy CRC 109B9519
Track not present in AccurateRip database
Copy OK
Track 3
Filename I:\Torrent\Раздачи\Orquesta de las nubes - Me paro cuando suena (1983) [FLAC]\03. Divertimento Segundo.wav
Pre-gap length 0:00:03.00
Peak level 81.2 %
Track quality 100.0 %
Test CRC 9FD6A607
Copy CRC 9FD6A607
Track not present in AccurateRip database
Copy OK
Track 4
Filename I:\Torrent\Раздачи\Orquesta de las nubes - Me paro cuando suena (1983) [FLAC]\04. Parte IV, Tiestos.wav
Pre-gap length 0:00:01.00
Peak level 81.3 %
Track quality 100.0 %
Test CRC 315BA4D8
Copy CRC 315BA4D8
Track not present in AccurateRip database
Copy OK
Track 5
Filename I:\Torrent\Раздачи\Orquesta de las nubes - Me paro cuando suena (1983) [FLAC]\05. Final.wav
Pre-gap length 0:00:01.00
Peak level 49.4 %
Track quality 100.0 %
Test CRC EBFA95F9
Copy CRC EBFA95F9
Track not present in AccurateRip database
Copy OK
None of the tracks are present in the AccurateRip database
No errors occurred
End of status report
Собственный рип оригинального диска. Сканы внутри.
По всем вопросам пишите личное сообщение пользователю M0p94ok.
07:37
167
Нет комментариев. Ваш будет первым!