Поиск

(World Fusion, Ethnic Jazz, Avant-Garde) Orquesta De Las Nubes - El Orden Del Azar - 1985, FLAC (tracks+.cue), lossless

(World Fusion, Ethnic Jazz, Avant-Garde) Orquesta De Las Nubes - El Orden Del Azar - 1985, FLAC (tracks+.cue), lossless
Треклист:
Orquesta De Las Nubes - El Orden Del Azar
Жанр: World Fusion, Ethnic Jazz, Avant-Garde
Год выпуска диска: 1985
Производитель диска: Spain, Linterna Musica
Аудио кодек: FLAC
Тип рипа: tracks+.cue
Битрейт аудио: lossless
Продолжительность: 42:21
Трэклист:
01 Basura Del Coral (3:20)
02 Sobredosis De Pasión (5:57)
03 Solo Uno (0:57)
04 Cama Diarmónica (3:17)
05 Solo Dos (0:53)
06 Dedo En El Ojo (5:37)
07 Estabilizador De Sueño (5:13)
08 El Orden Del Azar (5:37)
09 Solo Tres (1:08)
10 Cavando En El Arco Iris (5:27)
11 Ludión (2:46)
12 Cadaver Exquisito (1:08)
Доп. информация:
Музыка этой группы с трудом поддаётся жанровой классификации. Из множества жанров, которыми их награждают на различных сайтах в интернете, я остановился на вышеуказанных. Хотя это, конечно, не совсем джаз. Кроме того встречал такие определения этой музыки: folk, world, new age, latin jazz, classical, postmodern, progressive rock, experimental и даже free jazz (наверное, самое далёкое от сути определение).Короче, слушайте сами - решайте сами...
Orquesta De Las Nubes fue una oscura banda experimental liderada por Suso Sáiz que editó tres discos en los '80 (Orquesta De Las Nubes was an obscure 80's experimental band led by Suso Sáiz that released three albums in the 80's)
Maria Villa: voz crotalos afinados timbal botellas trozos de madera casiotone MT 70 percusion reclamos.
Pedro Estevan: vibrafono marimba temple blocks timbal calimba voz sartenes trozos de metal percusion reclamos.
Suso Saiz: guitarra voz armonica percusion reclamos.
Todas las composiciones son de ORQUESTA DE LAS NUBES
 
Отчёт EAC
Exact Audio Copy V0.99 prebeta 5 from 4. May 2009
EAC extraction logfile from 12. July 2009, 21:03
Orquesta de las Nubes / El orden del Azar
Used drive : ASUS DRW-20B1ST Adapter: 3 ID: 0
Read mode : Secure
Utilize accurate stream : Yes
Defeat audio cache : Yes
Make use of C2 pointers : No
Read offset correction : 6
Overread into Lead-In and Lead-Out : No
Fill up missing offset samples with silence : Yes
Delete leading and trailing silent blocks : No
Null samples used in CRC calculations : Yes
Used interface : Native Win32 interface for Win NT & 2000
Gap handling : Appended to previous track
Used output format : User Defined Encoder
Selected bitrate : 768 kBit/s
Quality : High
Add ID3 tag : No
Command line compressor : C:\Program Files\Exact Audio Copy\FLAC\FLAC.EXE
Additional command line options : -8 -V -T "ARTIST=%a" -T "TITLE=%t" -T "ALBUM=%g" -T "DATE=%y" -T "TRACKNUMBER=%n" -T "GENRE=%m" -T "COMMENT=EAC FLAC -8" %s
TOC of the extracted CD
Track | Start | Length | Start sector | End sector
---------------------------------------------------------
1 | 0:00.12 | 3:23.00 | 12 | 15236
2 | 3:23.12 | 6:01.00 | 15237 | 42311
3 | 9:24.12 | 1:00.00 | 42312 | 46811
4 | 10:24.12 | 3:21.00 | 46812 | 61886
5 | 13:45.12 | 0:56.00 | 61887 | 66086
6 | 14:41.12 | 5:41.00 | 66087 | 91661
7 | 20:22.12 | 5:16.00 | 91662 | 115361
8 | 25:38.12 | 6:03.00 | 115362 | 142586
9 | 31:41.12 | 1:11.00 | 142587 | 147911
10 | 32:52.12 | 5:31.00 | 147912 | 172736
11 | 38:23.12 | 2:50.00 | 172737 | 185486
12 | 41:13.12 | 1:08.00 | 185487 | 190586
Track 1
Filename I:\Torrent\Раздачи\Orquesta de las Nubes - El orden del Azar (1985) [FLAC]\01. Basura del Coral.wav
Pre-gap length 0:00:02.12
Peak level 93.3 %
Track quality 100.0 %
Test CRC 813E38C7
Copy CRC 813E38C7
Track not present in AccurateRip database
Copy OK
Track 2
Filename I:\Torrent\Раздачи\Orquesta de las Nubes - El orden del Azar (1985) [FLAC]\02. Sobredosis de Pasiуn.wav
Pre-gap length 0:00:03.00
Peak level 96.1 %
Track quality 100.0 %
Test CRC AE20AAD7
Copy CRC AE20AAD7
Track not present in AccurateRip database
Copy OK
Track 3
Filename I:\Torrent\Раздачи\Orquesta de las Nubes - El orden del Azar (1985) [FLAC]\03. Solo Uno.wav
Pre-gap length 0:00:03.00
Peak level 46.6 %
Track quality 100.0 %
Test CRC 4A5750BA
Copy CRC 4A5750BA
Track not present in AccurateRip database
Copy OK
Track 4
Filename I:\Torrent\Раздачи\Orquesta de las Nubes - El orden del Azar (1985) [FLAC]\04. Cama Diarmуnica.wav
Pre-gap length 0:00:03.00
Peak level 84.0 %
Track quality 100.0 %
Test CRC 1D61571C
Copy CRC 1D61571C
Track not present in AccurateRip database
Copy OK
Track 5
Filename I:\Torrent\Раздачи\Orquesta de las Nubes - El orden del Azar (1985) [FLAC]\05. Solo Dos.wav
Pre-gap length 0:00:03.00
Peak level 74.9 %
Track quality 100.0 %
Test CRC 2B693DAD
Copy CRC 2B693DAD
Track not present in AccurateRip database
Copy OK
Track 6
Filename I:\Torrent\Раздачи\Orquesta de las Nubes - El orden del Azar (1985) [FLAC]\06. Dedo en el Ojo.wav
Pre-gap length 0:00:03.00
Peak level 97.1 %
Track quality 100.0 %
Test CRC 9FD2F294
Copy CRC 9FD2F294
Track not present in AccurateRip database
Copy OK
Track 7
Filename I:\Torrent\Раздачи\Orquesta de las Nubes - El orden del Azar (1985) [FLAC]\07. Estabilizador de Sueсo.wav
Pre-gap length 0:00:03.00
Peak level 93.8 %
Track quality 100.0 %
Test CRC 25DE3925
Copy CRC 25DE3925
Track not present in AccurateRip database
Copy OK
Track 8
Filename I:\Torrent\Раздачи\Orquesta de las Nubes - El orden del Azar (1985) [FLAC]\08. El orden del Azar.wav
Pre-gap length 0:00:03.00
Peak level 78.2 %
Track quality 100.0 %
Test CRC 44E95EE2
Copy CRC 44E95EE2
Track not present in AccurateRip database
Copy OK
Track 9
Filename I:\Torrent\Раздачи\Orquesta de las Nubes - El orden del Azar (1985) [FLAC]\09. Solo Tres.wav
Pre-gap length 0:00:03.00
Peak level 72.6 %
Track quality 100.0 %
Test CRC BC5FB7FC
Copy CRC BC5FB7FC
Track not present in AccurateRip database
Copy OK
Track 10
Filename I:\Torrent\Раздачи\Orquesta de las Nubes - El orden del Azar (1985) [FLAC]\10. Cavando en el Arco Iris.wav
Pre-gap length 0:00:03.00
Peak level 83.0 %
Track quality 100.0 %
Test CRC F627AAD3
Copy CRC F627AAD3
Track not present in AccurateRip database
Copy OK
Track 11
Filename I:\Torrent\Раздачи\Orquesta de las Nubes - El orden del Azar (1985) [FLAC]\11. Ludion.wav
Pre-gap length 0:00:03.00
Peak level 100.0 %
Track quality 99.9 %
Test CRC 1E3FB652
Copy CRC 1E3FB652
Track not present in AccurateRip database
Copy OK
Track 12
Filename I:\Torrent\Раздачи\Orquesta de las Nubes - El orden del Azar (1985) [FLAC]\12. Cadaver Exquisito.wav
Pre-gap length 0:00:03.00
Peak level 66.4 %
Track quality 100.0 %
Test CRC 9497A41C
Copy CRC 9497A41C
Track not present in AccurateRip database
Copy OK
None of the tracks are present in the AccurateRip database
No errors occurred
End of status report
Собственный рип оригинального диска. Сканы внутри.
08:36
253
Нет комментариев. Ваш будет первым!