Поиск

(Latin Jazz, Vocal) Flora Purim - Flora Purim Sings Milton Nascimento - 2002, FLAC (image+.cue) lossless

(Latin Jazz, Vocal) Flora Purim - Flora Purim Sings Milton Nascimento - 2002, FLAC (image+.cue) lossless
Треклист:
Flora Purim - Flora Purim Sings Milton Nascimento
Жанр: Latin Jazz, Vocal
Год выпуска диска: 2002
Производитель диска: Россия
Аудио кодек: FLAC
Тип рипа: image+.cue
Продолжительность: 53:01
Трэклист:
1 Maria Tres Filhos 4:57
2 Encontros E Despedidas (Brant, Nascimento) 4:04
3 Tudo Que Voce Podia Ser (Borges, Borges) 4:54
4 Nuvem Cigana (Borges, Borges) 5:59
5 Canto Latino (Guerra, Nascimento) 4:52
6 Nada Sera Como Antes, Amanha 5:23
7 Gira Girou (Borges, Nascimento) 4:55
8 Nós Dois 6:12
9 Cravo E Canela (Bastos, Nascimento) 5:24
10 Cais (Bastos, Nascimento) 6:16
Состав:
Flora Purim - vocals
George Duke - keyboards on Nós Dois
Widor Santiago - saxophones, flutes
Gary Brown - bass guitar
José Neto - guitar
Giovanni Hidalgo - percussion
Luiz Avellar - keyboards, acoustic piano, programming
Nico Assumpção - bass on Tudo Que Voce Podia Ser, Nós Dois, Encontros E Despedidas
Sizão Machado - bass on Canto Latino and Gira Girou
Diana Moreira - background vocals, vocal arrangements
Airto Moreira - drums, percussion, lead vocal on Gira Girou
Krishna Booker - programming
on Nada Sera Como Antes, Amanhã
Jeff Cressman - trombone
John Worley, Jr. - trumpet, flugelhorn
Bill Oritz - trumpet, flugelhorn
Marty Wehner - trumpet
Meceo Magdaluyo - baritone saxophone
Norbert Stachel - tenor saxophone
Widor Santiago - tenor & alto saxophones
 
EAC Log
Exact Audio Copy V0.99 prebeta 5 from 4. May 2009
EAC extraction logfile from 2. September 2009, 19:38
Flora Purim / Flora Purim Sings Milton Nascimento
Used drive : Optiarc DVD RW AD-7543A Adapter: 2 ID: 0
Read mode : Secure
Utilize accurate stream : Yes
Defeat audio cache : Yes
Make use of C2 pointers : No
Read offset correction : 48
Overread into Lead-In and Lead-Out : No
Fill up missing offset samples with silence : Yes
Delete leading and trailing silent blocks : No
Null samples used in CRC calculations : Yes
Used interface : Native Win32 interface for Win NT & 2000
Used output format : Internal WAV Routines
Sample format : 44.100 Hz; 16 Bit; Stereo
TOC of the extracted CD
Track | Start | Length | Start sector | End sector
---------------------------------------------------------
1 | 0:00.00 | 4:57.62 | 0 | 22336
2 | 4:57.62 | 4:04.43 | 22337 | 40679
3 | 9:02.30 | 4:54.70 | 40680 | 62799
4 | 13:57.25 | 5:59.61 | 62800 | 89785
5 | 19:57.11 | 4:52.31 | 89786 | 111716
6 | 24:49.42 | 5:23.60 | 111717 | 136001
7 | 30:13.27 | 4:55.00 | 136002 | 158126
8 | 35:08.27 | 6:12.34 | 158127 | 186060
9 | 41:20.61 | 5:24.45 | 186061 | 210405
10 | 46:45.31 | 6:16.05 | 210406 | 238610
Range status and errors
Selected range
Filename Z:\home\igo\eac\CDImage.wav
Peak level 99.9 %
Range quality 99.9 %
Test CRC 9B1D12DD
Copy CRC 9B1D12DD
Copy OK
No errors occurred
AccurateRip summary
Track 1 cannot be verified as accurate (confidence 2) [118F05F0], AccurateRip returned [C901F70F]
Track 2 cannot be verified as accurate (confidence 2) [ED947959], AccurateRip returned [651791C9]
Track 3 cannot be verified as accurate (confidence 2) [E43C51E2], AccurateRip returned [452BD7A2]
Track 4 cannot be verified as accurate (confidence 2) [1CE325CB], AccurateRip returned [DF424B1D]
Track 5 cannot be verified as accurate (confidence 2) [2CF90966], AccurateRip returned [63E59DD6]
Track 6 cannot be verified as accurate (confidence 2) [8E23C0C4], AccurateRip returned [8B5E934E]
Track 7 cannot be verified as accurate (confidence 2) [1FA8D114], AccurateRip returned [F5C4A3B7]
Track 8 cannot be verified as accurate (confidence 2) [6E884FDB], AccurateRip returned [5C179C0A]
Track 9 cannot be verified as accurate (confidence 2) [76750B8D], AccurateRip returned [8D7C9890]
Track 10 cannot be verified as accurate (confidence 2) [D548D067], AccurateRip returned [D4BAD111]
No tracks could be verified as accurate
You may have a different pressing from the one(s) in the database
End of status report
 
auCDtect
auCDtect: CD records authenticity detector, version 0.8.2
Copyright (c) 2004 Oleg Berngardt. All rights reserved.
Copyright (c) 2004 Alexander Djourik. All rights reserved.
------------------------------------------------------------
Processing file: [CDImage.wav]
Detected average hi-boundary frequency: 2.029046e+04 Hz
Detected average lo-boundary frequency: 1.371313e+04 Hz
Detected average hi-cut frequency: 2.157566e+04 Hz
Detected average lo-cut frequency: 1.016083e+04 Hz
Maximum probablis boundary frequency: 2.189100e+04 Hz
Coefficient of nonlinearity of a phase: 2.270467e-01
First order smothness: 3.993110e-01
Second order smothness: 5.829684e-01
------------------------------------------------------------
This track looks like CDDA with probability 100%
------------------------------------------------------------
Final Conclusion:
------------------------------------------------------------
These tracks looks like CDDA with probability 100%
По всем вопросам пишите личное сообщение пользователю M0p94ok.
07:38
186
Нет комментариев. Ваш будет первым!