Поиск

(Latin Jazz, Fusion, Vocal) Flora Purim - Perpetual Emotion - 2001, FLAC (image+.cue) lossless

(Latin Jazz, Fusion, Vocal) Flora Purim - Perpetual Emotion - 2001, FLAC (image+.cue) lossless
Треклист:
Flora Purim - Perpetual Emotion
Жанр: Latin Jazz, Fusion, Vocal
Год выпуска диска: 2001
Производитель диска: Россия
Тип рипа: image+.cue
Аудио кодек: FLAC
Продолжительность: 53:01
Трэклист:
1 San Francisco River (Moreira, Purim) 4:57
2 My Ship (Gershwin, Weill) 4:12
3 Escape (Purim) 4:12
4 Saudade (Purim) 3:02
5 Crystal Silence (Corea, Potter) 6:17
6 Flora and Airto (Purim) 5:00
7 Fotografia (Gilbert, Jobim) 6:54
8 Journey to Eden (Purim) 5:18
9 Search for Peace (Purim, Tyner) 6:07
10 Airto's Jazz Dance (Purim) 4:06
11 Carinhoso (Purim) 3:52
Состав:
Flora Purim - Vocal
Oscar Castro-Neves - Guitar (Acoustic), Arranger, Vocals (bckgr), Producer
Trey Henry - Bass
Christian Jacob - Piano, Arranger
Gary Meek - Clarinet, Flute, Arranger, Saxophone, Producer
Airto Moreira - Percussion, Drums, Producer
 
EAC Log
Exact Audio Copy V0.99 prebeta 5 from 4. May 2009
EAC extraction logfile from 2. September 2009, 22:52
Flora Purim / Perpetual Emotion
Used drive : Optiarc DVD RW AD-7543A Adapter: 2 ID: 0
Read mode : Secure
Utilize accurate stream : Yes
Defeat audio cache : Yes
Make use of C2 pointers : No
Read offset correction : 48
Overread into Lead-In and Lead-Out : No
Fill up missing offset samples with silence : Yes
Delete leading and trailing silent blocks : No
Null samples used in CRC calculations : Yes
Used interface : Native Win32 interface for Win NT & 2000
Used output format : Internal WAV Routines
Sample format : 44.100 Hz; 16 Bit; Stereo
TOC of the extracted CD
Track | Start | Length | Start sector | End sector
---------------------------------------------------------
1 | 0:00.00 | 4:57.55 | 0 | 22329
2 | 4:57.55 | 4:12.45 | 22330 | 41274
3 | 9:10.25 | 4:12.30 | 41275 | 60204
4 | 13:22.55 | 3:02.15 | 60205 | 73869
5 | 16:24.70 | 6:17.59 | 73870 | 102203
6 | 22:42.54 | 5:00.00 | 102204 | 124703
7 | 27:42.54 | 6:54.73 | 124704 | 155826
8 | 34:37.52 | 5:18.38 | 155827 | 179714
9 | 39:56.15 | 6:07.07 | 179715 | 207246
10 | 46:03.22 | 4:06.48 | 207247 | 225744
11 | 50:09.70 | 3:52.32 | 225745 | 243176
Range status and errors
Selected range
Filename Z:\home\igo\eac\CDImage.wav
Peak level 98.8 %
Range quality 100.0 %
Copy CRC A3DE1716
Copy OK
No errors occurred
AccurateRip summary
Track 1 cannot be verified as accurate (confidence 2) [899463D4], AccurateRip returned [4B9F3798]
Track 2 cannot be verified as accurate (confidence 2) [C3F30502], AccurateRip returned [497A196C]
Track 3 cannot be verified as accurate (confidence 2) [F1B42757], AccurateRip returned [68814393]
Track 4 cannot be verified as accurate (confidence 2) [56C9298C], AccurateRip returned [C8872FCE]
Track 5 cannot be verified as accurate (confidence 2) [545C2FEE], AccurateRip returned [FA19FCF8]
Track 6 cannot be verified as accurate (confidence 2) [197F524D], AccurateRip returned [EBD6F165]
Track 7 cannot be verified as accurate (confidence 2) [8C2AA9C7], AccurateRip returned [2217593D]
Track 8 cannot be verified as accurate (confidence 2) [917D5421], AccurateRip returned [3DF66E1F]
Track 9 cannot be verified as accurate (confidence 2) [DAA06F66], AccurateRip returned [7EA32C6F]
Track 10 not present in database
Track 11 cannot be verified as accurate (confidence 2) [38164066], AccurateRip returned [FA0F038A]
10 track(s) could not be verified as accurate
1 track(s) not present in the AccurateRip database
No tracks could be verified as accurate
You may have a different pressing from the one(s) in the database
End of status report
 
auCDtect
auCDtect: CD records authenticity detector, version 0.8.2
Copyright (c) 2004 Oleg Berngardt. All rights reserved.
Copyright (c) 2004 Alexander Djourik. All rights reserved.
------------------------------------------------------------
Processing file: [CDImage.wav]
Detected average hi-boundary frequency: 2.021152e+04 Hz
Detected average lo-boundary frequency: 1.341719e+04 Hz
Detected average hi-cut frequency: 2.160629e+04 Hz
Detected average lo-cut frequency: 1.035812e+04 Hz
Maximum probablis boundary frequency: 2.189100e+04 Hz
Coefficient of nonlinearity of a phase: 2.881991e-01
First order smothness: 3.626228e-01
Second order smothness: 6.612889e-01
------------------------------------------------------------
This track looks like CDDA with probability 100%
------------------------------------------------------------
Final Conclusion:
------------------------------------------------------------
These tracks looks like CDDA with probability 100%
 
Спектр
!!! DownBeat (Самый авторитетный джазовый журнал, 12 номеров)[PDF] !!!
Музыкой делиться приятно! Но хочется большего. Делитесь своими впечатлениями!!!!
По всем вопросам пишите личное сообщение пользователю M0p94ok.
07:38
198
Нет комментариев. Ваш будет первым!