Поиск

(Bop, Vocalese, Bossa Nova) Jon Hendricks - Salud! Joao Gilberto Originator of the Bossa Nova - 1961, FLAC (image+.cue), lossless

(Bop, Vocalese, Bossa Nova) Jon Hendricks - Salud! Joao Gilberto Originator of the Bossa Nova - 1961, FLAC (image+.cue), lossless
Треклист:
Jon Hendricks - Salud! João Gilberto Originator of the Bossa Nova
Жанр: Bop, Vocalese, Bossa Nova
Год выпуска диска: 1961
Производитель диска: Россия
Аудио кодек: FLAC
Тип рипа: image+.cue
Битрейт аудио: lossless
Продолжительность: 29:47
Трэклист:
1. Duck (O Pato)
2. Quiet Nights (Corcovado)
3. You and I (Voce E Eu)
4. Love in Peace (O Amor Em Paz)
5. Little Paper Ball [Bolinha de Papel]
6. Longing for Bahia
7. Little Train of Iron [Bolinha de Papel]
8. No More Blues (Chega de Saudade)
9. Rosa Morena
10. Most Beautiful Thing (Coisa Mais Linda)
11. Samba of My Land (Samba da Minha Terra)
12. Once Again (Outra Vez)
13. Jive Samba
Состав:
Jon Hendricks - Vocals
Antonio Carlos Jobim - String Arrangements
Milt Bernhart - Trombone
Pete Candoli - Trumpet
Buddy Collette - Flute
Conte - Trumpet
Gildo Mahones - Piano
Frank Messina - Accordion
Ray Sherman - Organ
Jimmie Smith - Drums
 
EAC Log
Exact Audio Copy V0.99 prebeta 5 from 4. May 2009
EAC extraction logfile from 3. September 2009, 15:27
Jon Hendricks / Salud Joao Gilberto
Used drive : Optiarc DVD RW AD-7543A Adapter: 2 ID: 0
Read mode : Secure
Utilize accurate stream : Yes
Defeat audio cache : Yes
Make use of C2 pointers : No
Read offset correction : 48
Overread into Lead-In and Lead-Out : No
Fill up missing offset samples with silence : Yes
Delete leading and trailing silent blocks : No
Null samples used in CRC calculations : Yes
Used interface : Native Win32 interface for Win NT & 2000
Used output format : Internal WAV Routines
Sample format : 44.100 Hz; 16 Bit; Stereo
TOC of the extracted CD
Track | Start | Length | Start sector | End sector
---------------------------------------------------------
1 | 0:00.00 | 1:57.22 | 0 | 8796
2 | 1:57.22 | 2:08.33 | 8797 | 18429
3 | 4:05.55 | 3:08.02 | 18430 | 32531
4 | 7:13.57 | 2:35.50 | 32532 | 44206
5 | 9:49.32 | 1:18.15 | 44207 | 50071
6 | 11:07.47 | 2:28.05 | 50072 | 61176
7 | 13:35.52 | 1:56.40 | 61177 | 69916
8 | 15:32.17 | 2:07.18 | 69917 | 79459
9 | 17:39.35 | 2:12.45 | 79460 | 89404
10 | 19:52.05 | 3:06.42 | 89405 | 103396
11 | 22:58.47 | 2:31.23 | 103397 | 114744
12 | 25:29.70 | 1:57.62 | 114745 | 123581
13 | 27:27.57 | 2:19.68 | 123582 | 134074
Range status and errors
Selected range
Filename Z:\home\igo\eac\CDImage.wav
Peak level 99.9 %
Range quality 100.0 %
Copy CRC 968D2F55
Copy OK
No errors occurred
AccurateRip summary
Track 1 cannot be verified as accurate (confidence 2) [91059F93], AccurateRip returned [8A67E097]
Track 2 cannot be verified as accurate (confidence 2) [A1096F5C], AccurateRip returned [03AA6F90]
Track 3 cannot be verified as accurate (confidence 2) [4EA13FBB], AccurateRip returned [02F1F927]
Track 4 cannot be verified as accurate (confidence 2) [09CEC821], AccurateRip returned [F2BF4C8D]
Track 5 cannot be verified as accurate (confidence 2) [3021FFAA], AccurateRip returned [C16D6CBE]
Track 6 cannot be verified as accurate (confidence 2) [4D5A510F], AccurateRip returned [8F197117]
Track 7 cannot be verified as accurate (confidence 2) [4BEEDEB8], AccurateRip returned [E97C1170]
Track 8 cannot be verified as accurate (confidence 2) [76FC439A], AccurateRip returned [6D8C8172]
Track 9 cannot be verified as accurate (confidence 2) [3F8F36CC], AccurateRip returned [5626FEC0]
Track 10 cannot be verified as accurate (confidence 2) [8AD7684A], AccurateRip returned [13EE6742]
Track 11 cannot be verified as accurate (confidence 2) [8EF97779], AccurateRip returned [E3713BED]
Track 12 cannot be verified as accurate (confidence 2) [91942E41], AccurateRip returned [3816FD81]
Track 13 cannot be verified as accurate (confidence 2) [20AA6DD0], AccurateRip returned [B263F37C]
No tracks could be verified as accurate
You may have a different pressing from the one(s) in the database
End of status report
 
auCDtect
auCDtect: CD records authenticity detector, version 0.8.2
Copyright (c) 2004 Oleg Berngardt. All rights reserved.
Copyright (c) 2004 Alexander Djourik. All rights reserved.
------------------------------------------------------------
Processing file: [CDImage.wav]
Detected average hi-boundary frequency: 2.017450e+04 Hz
Detected average lo-boundary frequency: 1.206279e+04 Hz
Detected average hi-cut frequency: 2.140893e+04 Hz
Detected average lo-cut frequency: 5.883826e+03 Hz
Maximum probablis boundary frequency: 2.189100e+04 Hz
Coefficient of nonlinearity of a phase: 7.261401e-01
First order smothness: 3.857021e-01
Second order smothness: 6.174315e-01
------------------------------------------------------------
This track looks like CDDA with probability 100%
------------------------------------------------------------
Final Conclusion:
------------------------------------------------------------
These tracks looks like CDDA with probability 100%
 
Спектр
!!! DownBeat (Самый авторитетный джазовый журнал, 12 номеров)[PDF] !!!
Музыкой делиться приятно! Но хочется большего. Делитесь своими впечатлениями!!!!
07:39
236
Нет комментариев. Ваш будет первым!