Поиск

(World Fusion, Ethnic Jazz, Afro-Cuban Jazz) [CD] Fatoumata Diawara & Roberto Fonseca - At Home (Live In Marciac) - 2015, FLAC (tracks+.cue), lossless

(World Fusion, Ethnic Jazz, Afro-Cuban Jazz) [CD] Fatoumata Diawara & Roberto Fonseca - At Home (Live In Marciac) - 2015, FLAC (tracks+.cue), lossless
Fatoumata Diawara & Roberto Fonseca - At Home (Live In Marciac) Жанр: World Fusion, Ethnic Jazz, Afro-Cuban Jazz
Носитель: CD
Год издания: 2015
Издатель (лейбл): Jazz Village
Номер по каталогу: JV 570080
Аудиокодек: FLAC (*.flac)
Тип рипа: tracks+.cue
Битрейт аудио: lossless
Продолжительность: 48:10
Rip by jlgt
Наличие сканов в содержимом раздачи: да
Треклист:
01. Sowa (6:56)
02. Connection (14:03)
03. Yemaya (6:10)
04. Real Family (6:40)
05. Clandestin (7:44)
06. Neboufo (6:37)
Personnel:
Roberto Fonseca - piano & keyboards
Fatoumata Diawara - vocals & guitar
Ramses Rodriguez - drums
Joel Hierrezuelo - percussion
Yandy Martinez - acoustic and electric bass
Sekou Bah - electric guitar
Drissa Sibide - kamalen n'goni
 
 
Лог создания рипа
Exact Audio Copy V1.1 from 23. June 2015
EAC extraction logfile from 22. May 2016, 11:26
Fatoumata Diawara & Roberto Fonseca / At Home (Live In Marciac)
Used drive : PLEXTOR DVDR PX-L890SA Adapter: 1 ID: 1
Read mode : Secure
Utilize accurate stream : Yes
Defeat audio cache : Yes
Make use of C2 pointers : No
Read offset correction : 6
Overread into Lead-In and Lead-Out : No
Fill up missing offset samples with silence : Yes
Delete leading and trailing silent blocks : No
Null samples used in CRC calculations : Yes
Used interface : Native Win32 interface for Win NT & 2000
Gap handling : Appended to previous track
Used output format : User Defined Encoder
Selected bitrate : 128 kBit/s
Quality : High
Add ID3 tag : No
Command line compressor : C:\Program Files (x86)\Exact Audio Copy\FLAC\FLAC.EXE
Additional command line options : -8 -V -T "ARTIST=%artist%" -T "TITLE=%title%" -T "ALBUM=%albumtitle%" -T "DATE=%year%" -T "TRACKNUMBER=%tracknr%" -T "TOTALTRACKS=%numtracks%" -T "GENRE=%genre%" -T "ALBUMARTIST=%albumartist%" -T "ALBUM ARTIST=%albumartist%" -T "COMMENT=EAC Secure Mode, Test & Copy, AccurateRip, FLAC -8" %source%
TOC of the extracted CD
Track | Start | Length | Start sector | End sector
---------------------------------------------------------
1 | 0:00.00 | 6:56.01 | 0 | 31200
2 | 6:56.01 | 14:03.31 | 31201 | 94456
3 | 20:59.32 | 6:10.19 | 94457 | 122225
4 | 27:09.51 | 6:40.01 | 122226 | 152226
5 | 33:49.52 | 7:43.39 | 152227 | 186990
6 | 41:33.16 | 6:36.38 | 186991 | 216728
Track 1
Filename D:\Flac Rips\01 - Sowa.wav
Pre-gap length 0:00:02.00
Peak level 98.8 %
Extraction speed 3.3 X
Track quality 99.9 %
Test CRC EAAC0B53
Copy CRC EAAC0B53
Accurately ripped (confidence 8) [7DFC377F] (AR v2)
Copy OK
Track 2
Filename D:\Flac Rips\02 - Connection.wav
Pre-gap length 0:00:02.00
Peak level 98.4 %
Extraction speed 4.8 X
Track quality 100.0 %
Test CRC 58A65433
Copy CRC 58A65433
Accurately ripped (confidence 8) [9E678F8E] (AR v2)
Copy OK
Track 3
Filename D:\Flac Rips\03 - Yemaya.wav
Pre-gap length 0:00:02.00
Peak level 98.3 %
Extraction speed 5.3 X
Track quality 100.0 %
Test CRC 484F995A
Copy CRC 484F995A
Accurately ripped (confidence 8) [4E0622CE] (AR v2)
Copy OK
Track 4
Filename D:\Flac Rips\04 - Real Family.wav
Pre-gap length 0:00:02.00
Peak level 100.0 %
Extraction speed 4.9 X
Track quality 99.9 %
Test CRC B7E86C55
Copy CRC B7E86C55
Accurately ripped (confidence 8) [79AE78A8] (AR v2)
Copy OK
Track 5
Filename D:\Flac Rips\05 - Clandestin.wav
Pre-gap length 0:00:02.00
Peak level 98.3 %
Extraction speed 6.2 X
Track quality 100.0 %
Test CRC 1EF5EC95
Copy CRC 1EF5EC95
Accurately ripped (confidence 8) [6492B354] (AR v2)
Copy OK
Track 6
Filename D:\Flac Rips\06 - Neboufo.wav
Pre-gap length 0:00:02.00
Peak level 97.8 %
Extraction speed 6.5 X
Track quality 100.0 %
Test CRC 3DAD2DDC
Copy CRC 3DAD2DDC
Accurately ripped (confidence 8) [CABB254B] (AR v2)
Copy OK
All tracks accurately ripped
No errors occurred
End of status report
---- CUETools DB Plugin V2.1.6
[CTDB TOCID: 9djZ1lACHlgBIH1r_k3BZEkXjlc-] found
Submit result: 9djZ1lACHlgBIH1r_k3BZEkXjlc- has been confirmed
Track | CTDB Status
1 | (17/17) Accurately ripped
2 | (17/17) Accurately ripped
3 | (17/17) Accurately ripped
4 | (17/17) Accurately ripped
5 | (17/17) Accurately ripped
6 | (17/17) Accurately ripped
==== Log checksum 93A967941DC990D9D17F9401F935B8CDB1B902CE225CD6AA58454FCCE504B618 ====
 
Содержание индексной карты (.CUE)
REM GENRE World
REM DATE 2015
REM DISCID 3E0B4906
REM COMMENT "ExactAudioCopy v1.1"
PERFORMER "Fatoumata Diawara & Roberto Fonseca"
TITLE "At Home (Live In Marciac)"
FILE "01 - Sowa.wav" WAVE
TRACK 01 AUDIO
TITLE "Sowa"
PERFORMER "Fatoumata Diawara & Roberto Fonseca"
INDEX 01 00:00:00
TRACK 02 AUDIO
TITLE "Connection"
PERFORMER "Fatoumata Diawara & Roberto Fonseca"
INDEX 00 06:54:01
FILE "02 - Connection.wav" WAVE
INDEX 01 00:00:00
TRACK 03 AUDIO
TITLE "Yemaya"
PERFORMER "Fatoumata Diawara & Roberto Fonseca"
INDEX 00 14:01:31
FILE "03 - Yemaya.wav" WAVE
INDEX 01 00:00:00
TRACK 04 AUDIO
TITLE "Real Family"
PERFORMER "Fatoumata Diawara & Roberto Fonseca"
INDEX 00 06:08:19
FILE "04 - Real Family.wav" WAVE
INDEX 01 00:00:00
TRACK 05 AUDIO
TITLE "Clandestin"
PERFORMER "Fatoumata Diawara & Roberto Fonseca"
INDEX 00 06:38:01
FILE "05 - Clandestin.wav" WAVE
INDEX 01 00:00:00
TRACK 06 AUDIO
TITLE "Neboufo"
PERFORMER "Fatoumata Diawara & Roberto Fonseca"
INDEX 00 07:41:39
FILE "06 - Neboufo.wav" WAVE
INDEX 01 00:00:00
21:23
634
Нет комментариев. Ваш будет первым!