Поиск

(World Fusion, Contemporary Jazz) [CD] Daniel Freedman - Imagine That - 2016, FLAC (tracks+.cue), lossless

(World Fusion, Contemporary Jazz) [CD] Daniel Freedman - Imagine That - 2016, FLAC (tracks+.cue), lossless
Daniel Freedman - Imagine That Жанр: World Fusion, Contemporary Jazz
Носитель: CD
Год издания: 2016
Издатель (лейбл): Anzic Records
Номер по каталогу: ANZ-0054
Аудиокодек: FLAC (*.flac)
Тип рипа: tracks+.cue
Битрейт аудио: lossless
Продолжительность: 49:21
Rip by jlgt
Наличие сканов в содержимом раздачи: да
Треклист:
01. Determined Soul (5:28)
02. Baby Aya (6:03)
03. Big in Yemen (4:47)
04. Codex (5:07)
05. Mindaho (7:08)
06. Love Takes Time (5:26)
07. Eastern Elegy (6:32)
08. The Sisters Dance (8:50)
Personnel:
Daniel Freedman - drums
Omer Avital - bass, oud
Lionel Loueke - guitar, vocals
Gilmar Gomes - percussion
Jason Lindner - piano, keyboards
Angélique Kidjo - vocals
 
 
Лог создания рипа
Exact Audio Copy V1.1 from 23. June 2015
EAC extraction logfile from 13. May 2016, 22:36
Daniel Freedman / Imagine That
Used drive : PLEXTOR DVDR PX-L890SA Adapter: 1 ID: 1
Read mode : Secure
Utilize accurate stream : Yes
Defeat audio cache : Yes
Make use of C2 pointers : No
Read offset correction : 6
Overread into Lead-In and Lead-Out : No
Fill up missing offset samples with silence : Yes
Delete leading and trailing silent blocks : No
Null samples used in CRC calculations : Yes
Used interface : Native Win32 interface for Win NT & 2000
Gap handling : Appended to previous track
Used output format : User Defined Encoder
Selected bitrate : 128 kBit/s
Quality : High
Add ID3 tag : No
Command line compressor : C:\Program Files (x86)\Exact Audio Copy\FLAC\FLAC.EXE
Additional command line options : -8 -V -T "ARTIST=%artist%" -T "TITLE=%title%" -T "ALBUM=%albumtitle%" -T "DATE=%year%" -T "TRACKNUMBER=%tracknr%" -T "TOTALTRACKS=%numtracks%" -T "GENRE=%genre%" -T "ALBUMARTIST=%albumartist%" -T "ALBUM ARTIST=%albumartist%" -T "COMMENT=EAC Secure Mode, Test & Copy, AccurateRip, FLAC -8" %source%
TOC of the extracted CD
Track | Start | Length | Start sector | End sector
---------------------------------------------------------
1 | 0:00.00 | 5:28.10 | 0 | 24609
2 | 5:28.10 | 6:02.65 | 24610 | 51824
3 | 11:31.00 | 4:46.67 | 51825 | 73341
4 | 16:17.67 | 5:07.11 | 73342 | 96377
5 | 21:25.03 | 7:08.30 | 96378 | 128507
6 | 28:33.33 | 5:26.13 | 128508 | 152970
7 | 33:59.46 | 6:31.53 | 152971 | 182348
8 | 40:31.24 | 8:49.48 | 182349 | 222071
Track 1
Filename D:\Flac Rips\01 - Determined Soul.wav
Pre-gap length 0:00:02.00
Peak level 100.0 %
Extraction speed 3.5 X
Track quality 100.0 %
Test CRC 4D2DFD61
Copy CRC 4D2DFD61
Track not present in AccurateRip database
Copy OK
Track 2
Filename D:\Flac Rips\02 - Baby Aya.wav
Pre-gap length 0:00:00.40
Peak level 100.0 %
Extraction speed 3.5 X
Track quality 99.9 %
Test CRC EC2F2196
Copy CRC EC2F2196
Track not present in AccurateRip database
Copy OK
Track 3
Filename D:\Flac Rips\03 - Big in Yemen.wav
Peak level 100.0 %
Extraction speed 4.4 X
Track quality 100.0 %
Test CRC 0922AAE9
Copy CRC 0922AAE9
Track not present in AccurateRip database
Copy OK
Track 4
Filename D:\Flac Rips\04 - Codex.wav
Pre-gap length 0:00:02.04
Peak level 100.0 %
Extraction speed 4.8 X
Track quality 100.0 %
Test CRC 5803589D
Copy CRC 5803589D
Track not present in AccurateRip database
Copy OK
Track 5
Filename D:\Flac Rips\05 - Mindaho.wav
Pre-gap length 0:00:00.01
Peak level 100.0 %
Extraction speed 5.3 X
Track quality 100.0 %
Test CRC 3A5CF39D
Copy CRC 3A5CF39D
Track not present in AccurateRip database
Copy OK
Track 6
Filename D:\Flac Rips\06 - Love Takes Time.wav
Pre-gap length 0:00:01.22
Peak level 100.0 %
Extraction speed 5.5 X
Track quality 100.0 %
Test CRC 0E0DE473
Copy CRC 0E0DE473
Track not present in AccurateRip database
Copy OK
Track 7
Filename D:\Flac Rips\07 - Eastern Elegy.wav
Pre-gap length 0:00:01.33
Peak level 100.0 %
Extraction speed 6.0 X
Track quality 100.0 %
Test CRC 0512D9DD
Copy CRC 0512D9DD
Track not present in AccurateRip database
Copy OK
Track 8
Filename D:\Flac Rips\08 - The Sisters Dance.wav
Pre-gap length 0:00:00.73
Peak level 100.0 %
Extraction speed 6.5 X
Track quality 100.0 %
Test CRC 81CC4342
Copy CRC 81CC4342
Track not present in AccurateRip database
Copy OK
None of the tracks are present in the AccurateRip database
No errors occurred
End of status report
---- CUETools DB Plugin V2.1.6
[CTDB TOCID: cb4N.5VPduIMs4xanfx6Fl2xrew-] disk not present in database
Submit result: cb4N.5VPduIMs4xanfx6Fl2xrew- has been uploaded
==== Log checksum 13DB5729419E354030D20132E14963751768BDEE5080BDB5713C0B8ACEE07DDA ====
 
Содержание индексной карты (.CUE)
REM GENRE Jazz
REM DATE 2015
REM DISCID 660B9008
REM COMMENT "ExactAudioCopy v1.1"
PERFORMER "Daniel Freedman"
TITLE "Imagine That"
FILE "01 - Determined Soul.wav" WAVE
TRACK 01 AUDIO
TITLE "Determined Soul"
PERFORMER "Daniel Freedman"
INDEX 01 00:00:00
TRACK 02 AUDIO
TITLE "Baby Aya"
PERFORMER "Daniel Freedman"
INDEX 00 05:27:45
FILE "02 - Baby Aya.wav" WAVE
INDEX 01 00:00:00
FILE "03 - Big in Yemen.wav" WAVE
TRACK 03 AUDIO
TITLE "Big in Yemen"
PERFORMER "Daniel Freedman"
INDEX 01 00:00:00
TRACK 04 AUDIO
TITLE "Codex"
PERFORMER "Daniel Freedman"
INDEX 00 04:44:63
FILE "04 - Codex.wav" WAVE
INDEX 01 00:00:00
TRACK 05 AUDIO
TITLE "Mindaho"
PERFORMER "Daniel Freedman"
INDEX 00 05:07:10
FILE "05 - Mindaho.wav" WAVE
INDEX 01 00:00:00
TRACK 06 AUDIO
TITLE "Love Takes Time"
PERFORMER "Daniel Freedman"
INDEX 00 07:07:08
FILE "06 - Love Takes Time.wav" WAVE
INDEX 01 00:00:00
TRACK 07 AUDIO
TITLE "Eastern Elegy"
PERFORMER "Daniel Freedman"
INDEX 00 05:24:55
FILE "07 - Eastern Elegy.wav" WAVE
INDEX 01 00:00:00
TRACK 08 AUDIO
TITLE "The Sisters Dance"
PERFORMER "Daniel Freedman"
INDEX 00 06:30:55
FILE "08 - The Sisters Dance.wav" WAVE
INDEX 01 00:00:00
21:23
325
Нет комментариев. Ваш будет первым!