Поиск

(World Fusion, Latin Jazz) [CD] Gerardo Nunez & Ulf Wakenius - Logos - 2016, FLAC (tracks+.cue), lossless

(World Fusion, Latin Jazz) [CD] Gerardo Nunez & Ulf Wakenius - Logos - 2016, FLAC (tracks+.cue), lossless
Треклист:
Gerardo Nunez & Ulf Wakenius - Logos Жанр: World Fusion, Latin Jazz
Носитель: CD
Год издания: 2016
Издатель (лейбл): ACT Music
Номер по каталогу: ACT 9822-2
Аудиокодек: FLAC (*.flac)
Тип рипа: tracks+.cue
Битрейт аудио: lossless
Продолжительность: 48:58
Rip by jlgt
Наличие сканов в содержимом раздачи: да
Треклист:
01. Logos (4:46)
02. Selene (4:43)
03. Habana (4:44)
04. Mirlo (3:34)
05. Philia (5:08)
06. Orfeo (4:19)
07. Liber Pater (8:03)
08. Sevilla (4:39)
09. Fui Piedra (9:03)
Personnel:
Gerardo Núñez - flamenco guitar
Ulf Wakenius - acoustic nylon string guitar
Cepillo - percussion
Cancun - flamenco singing
Carmen Cortés & Isabel Núñez - palmas & jaleos
 
 
Лог создания рипа
Exact Audio Copy V1.1 from 23. June 2015
EAC extraction logfile from 10. May 2016, 0:01
Gerardo Nunez & Ulf Wakenius / Logos [ACT 9822-2]
Used drive : PLEXTOR DVDR PX-L890SA Adapter: 1 ID: 1
Read mode : Secure
Utilize accurate stream : Yes
Defeat audio cache : Yes
Make use of C2 pointers : No
Read offset correction : 6
Overread into Lead-In and Lead-Out : No
Fill up missing offset samples with silence : Yes
Delete leading and trailing silent blocks : No
Null samples used in CRC calculations : Yes
Used interface : Native Win32 interface for Win NT & 2000
Gap handling : Appended to previous track
Used output format : User Defined Encoder
Selected bitrate : 128 kBit/s
Quality : High
Add ID3 tag : No
Command line compressor : C:\Program Files (x86)\Exact Audio Copy\FLAC\FLAC.EXE
Additional command line options : -8 -V -T "ARTIST=%artist%" -T "TITLE=%title%" -T "ALBUM=%albumtitle%" -T "DATE=%year%" -T "TRACKNUMBER=%tracknr%" -T "TOTALTRACKS=%numtracks%" -T "GENRE=%genre%" -T "ALBUMARTIST=%albumartist%" -T "ALBUM ARTIST=%albumartist%" -T "COMMENT=EAC Secure Mode, Test & Copy, AccurateRip, FLAC -8" %source%
TOC of the extracted CD
Track | Start | Length | Start sector | End sector
---------------------------------------------------------
1 | 0:00.00 | 4:46.21 | 0 | 21470
2 | 4:46.21 | 4:43.19 | 21471 | 42714
3 | 9:29.40 | 4:43.63 | 42715 | 64002
4 | 14:13.28 | 3:33.38 | 64003 | 80015
5 | 17:46.66 | 5:07.66 | 80016 | 103106
6 | 22:54.57 | 4:19.32 | 103107 | 122563
7 | 27:14.14 | 8:02.39 | 122564 | 158752
8 | 35:16.53 | 4:39.03 | 158753 | 179680
9 | 39:55.56 | 9:02.45 | 179681 | 220375
Track 1
Filename D:\Flac Rips\01 - Logos.wav
Pre-gap length 0:00:02.00
Peak level 99.8 %
Extraction speed 3.4 X
Track quality 100.0 %
Test CRC 4375E457
Copy CRC 4375E457
Track not present in AccurateRip database
Copy OK
Track 2
Filename D:\Flac Rips\02 - Selene.wav
Pre-gap length 0:00:01.57
Peak level 99.8 %
Extraction speed 3.9 X
Track quality 100.0 %
Test CRC BA7968DA
Copy CRC BA7968DA
Track not present in AccurateRip database
Copy OK
Track 3
Filename D:\Flac Rips\03 - Habana.wav
Pre-gap length 0:00:01.57
Peak level 99.8 %
Extraction speed 3.6 X
Track quality 99.9 %
Test CRC E075EB8F
Copy CRC E075EB8F
Track not present in AccurateRip database
Copy OK
Track 4
Filename D:\Flac Rips\04 - Mirlo.wav
Pre-gap length 0:00:01.57
Peak level 99.8 %
Extraction speed 4.4 X
Track quality 100.0 %
Test CRC 6599C56A
Copy CRC 6599C56A
Track not present in AccurateRip database
Copy OK
Track 5
Filename D:\Flac Rips\05 - Philia.wav
Pre-gap length 0:00:01.57
Peak level 99.8 %
Extraction speed 4.9 X
Track quality 100.0 %
Test CRC 14A07582
Copy CRC 14A07582
Track not present in AccurateRip database
Copy OK
Track 6
Filename D:\Flac Rips\06 - Orfeo.wav
Pre-gap length 0:00:01.57
Peak level 99.8 %
Extraction speed 5.1 X
Track quality 100.0 %
Test CRC 68EB3045
Copy CRC 68EB3045
Track not present in AccurateRip database
Copy OK
Track 7
Filename D:\Flac Rips\07 - Liber Pater.wav
Pre-gap length 0:00:01.57
Peak level 99.8 %
Extraction speed 5.8 X
Track quality 100.0 %
Test CRC 07A67C55
Copy CRC 07A67C55
Track not present in AccurateRip database
Copy OK
Track 8
Filename D:\Flac Rips\08 - Sevilla.wav
Pre-gap length 0:00:01.57
Peak level 99.8 %
Extraction speed 5.9 X
Track quality 100.0 %
Test CRC CFED3E1D
Copy CRC CFED3E1D
Track not present in AccurateRip database
Copy OK
Track 9
Filename D:\Flac Rips\09 - Fui Piedra.wav
Pre-gap length 0:00:01.57
Peak level 99.8 %
Extraction speed 6.6 X
Track quality 100.0 %
Test CRC 42C26A96
Copy CRC 42C26A96
Track not present in AccurateRip database
Copy OK
None of the tracks are present in the AccurateRip database
No errors occurred
End of status report
---- CUETools DB Plugin V2.1.6
[CTDB TOCID: 4DxmDeSLuBQx9qht0HVkeiVtfrg-] disk not present in database
Submit result: 4DxmDeSLuBQx9qht0HVkeiVtfrg- has been uploaded
==== Log checksum 955F34CEE38102FA746BA8E172E0CB3AA271CAF02E7C0D9FF68E29A925CE4CE2 ====
 
Содержание индексной карты (.CUE)
REM GENRE Flamenco
REM DATE 2016
REM DISCID 840B7A09
REM COMMENT "ExactAudioCopy v1.1"
PERFORMER "Gerardo Nunez & Ulf Wakenius"
TITLE "Logos [ACT 9822-2]"
FILE "01 - Logos.wav" WAVE
TRACK 01 AUDIO
TITLE "Logos"
PERFORMER "Gerardo Nunez & Ulf Wakenius"
INDEX 01 00:00:00
TRACK 02 AUDIO
TITLE "Selene"
PERFORMER "Gerardo Nunez & Ulf Wakenius"
INDEX 00 04:44:39
FILE "02 - Selene.wav" WAVE
INDEX 01 00:00:00
TRACK 03 AUDIO
TITLE "Habana"
PERFORMER "Gerardo Nunez & Ulf Wakenius"
INDEX 00 04:41:37
FILE "03 - Habana.wav" WAVE
INDEX 01 00:00:00
TRACK 04 AUDIO
TITLE "Mirlo"
PERFORMER "Gerardo Nunez & Ulf Wakenius"
INDEX 00 04:42:06
FILE "04 - Mirlo.wav" WAVE
INDEX 01 00:00:00
TRACK 05 AUDIO
TITLE "Philia"
PERFORMER "Gerardo Nunez & Ulf Wakenius"
INDEX 00 03:31:56
FILE "05 - Philia.wav" WAVE
INDEX 01 00:00:00
TRACK 06 AUDIO
TITLE "Orfeo"
PERFORMER "Gerardo Nunez & Ulf Wakenius"
INDEX 00 05:06:09
FILE "06 - Orfeo.wav" WAVE
INDEX 01 00:00:00
TRACK 07 AUDIO
TITLE "Liber Pater"
PERFORMER "Gerardo Nunez & Ulf Wakenius"
INDEX 00 04:17:50
FILE "07 - Liber Pater.wav" WAVE
INDEX 01 00:00:00
TRACK 08 AUDIO
TITLE "Sevilla"
PERFORMER "Gerardo Nunez & Ulf Wakenius"
INDEX 00 08:00:57
FILE "08 - Sevilla.wav" WAVE
INDEX 01 00:00:00
TRACK 09 AUDIO
TITLE "Fui Piedra"
PERFORMER "Gerardo Nunez & Ulf Wakenius"
INDEX 00 04:37:21
FILE "09 - Fui Piedra.wav" WAVE
INDEX 01 00:00:00
21:22
339
Нет комментариев. Ваш будет первым!