Поиск

(World Fusion, Ethnic, Guitar Jazz, Blue Note) Lionel Loueke (w/ Richard Bona, Angelique Kidjo, Esperanza Spalding, Massimo Biolcati, Marcus Gilmore, Ferenc Nemeth) - Mwaliko - 2010, FLAC (tracks), lossless

(World Fusion, Ethnic, Guitar Jazz, Blue Note) Lionel Loueke (w/ Richard Bona, Angelique Kidjo, Esperanza Spalding, Massimo Biolcati, Marcus Gilmore, Ferenc Nemeth) - Mwaliko - 2010, FLAC (tracks), lossless
Треклист:
Lionel Loueke / Mwaliko
Жанр: World Fusion, Ethnic, Guitar Jazz
Страна-производитель диска: USA
Год издания: 2010
Издатель (лейбл): Blue Note Records
Страна: Benin
Аудиокодек: FLAC (*.flac)
Тип рипа: tracks
Битрейт аудио: lossless
Источник (релизер): вата (релизер - crotchrot)
Наличие сканов в содержимом раздачи: front + back
Треклист:
01. Ami O
02. Griot
03. Twins
04. Wishes
05. Flying
06. Intro To L.L.
07. L.L.
08. Nefertiti
09. Vi Ma Yon
10. Shazoo
11. Dangbe
12. Hide Life
http://www.bluenote.com/artists/lionel-loueke/mwaliko
Доп. информация: Wiki | Last.fm | Discogs | Оффициальный сайт
Четвертый сольный альбом популярного исполнителя Лионела Луэке (род. 27 апреля 1973 года в Бенине, Западная Африка). Луэке известен своей необычайно разносторонней игрой на гитаре и мягким вокалом. Благодаря неординарному мышлению, он практически сразу пробился в первые ряды современной джазовой элиты. Кроме неоспоримых достоинств альбома Mwaliko, выпущенного на культовом лейбле Blue Note Records, несомненно стоит еще отметить целую плеяду приглашенных звезд, среди которых – Ришар Бона, Анжелик Киджо, Эсперанса Сполдинг и другие.
 
Photos

 
Лог создания рипа
X Lossless Decoder version 20100218 (116.4)
XLD extraction logfile from 2010-02-26 18:03:52 -0500
Lionel Loueke / Mwaliko
Used drive : HL-DT-ST DVDRW GWA4080MA (revision AE39)
Use cdparanoia mode : YES (CDParanoia III 10.2 engine)
Disable audio cache : OK for the drive with cache less than 2750KB
Make use of C2 pointers : NO
Read offset correction : 667
Max retry count : 100
TOC of the extracted CD
Track | Start | Length | Start sector | End sector
---------------------------------------------------------
1 | 00:00:00 | 04:23:13 | 0 | 19737
2 | 04:23:13 | 06:05:56 | 19738 | 47168
3 | 10:28:69 | 05:32:53 | 47169 | 72121
4 | 16:01:47 | 04:45:14 | 72122 | 93510
5 | 20:46:61 | 04:05:09 | 93511 | 111894
6 | 24:51:70 | 01:19:30 | 111895 | 117849
7 | 26:11:25 | 06:12:33 | 117850 | 145782
8 | 32:23:58 | 04:46:01 | 145783 | 167233
9 | 37:09:59 | 02:31:45 | 167234 | 178603
10 | 39:41:29 | 04:24:58 | 178604 | 198461
11 | 44:06:12 | 00:41:70 | 198462 | 201606
12 | 44:48:07 | 04:34:64 | 201607 | 222220
All Tracks
Album gain : -6.02 dB
Peak : 0.977692
Track 01
Filename : /Users/stevenbilodeau/Desktop/XLD Converted Files/01 - Ami O.flac
Pre-gap length : 00:02:00
Track gain : -7.25 dB
Peak : 0.977509
CRC32 hash (test run) : EFE5951C
CRC32 hash : EFE5951C
CRC32 hash (skip zero) : 62384BCA
AccurateRip signature : 3678CE4C
->Track not present in AccurateRip database.
Statistics
Read error : 0
Skipped (treated as error) : 0
Edge jitter error (maybe fixed) : 0
Atom jitter error (maybe fixed) : 0
Drift error (maybe fixed) : 0
Dropped bytes error (maybe fixed) : 0
Duplicated bytes error (maybe fixed) : 0
Inconsistency in error sectors : 0
Track 02
Filename : /Users/stevenbilodeau/Desktop/XLD Converted Files/02 - Griot.flac
Pre-gap length : 00:02:00
Track gain : -6.07 dB
Peak : 0.977539
CRC32 hash (test run) : C863BA36
CRC32 hash : C863BA36
CRC32 hash (skip zero) : 41898DA5
AccurateRip signature : 61EB1CC5
->Track not present in AccurateRip database.
Statistics
Read error : 0
Skipped (treated as error) : 0
Edge jitter error (maybe fixed) : 0
Atom jitter error (maybe fixed) : 0
Drift error (maybe fixed) : 0
Dropped bytes error (maybe fixed) : 0
Duplicated bytes error (maybe fixed) : 0
Inconsistency in error sectors : 0
Track 03
Filename : /Users/stevenbilodeau/Desktop/XLD Converted Files/03 - Twins.flac
Pre-gap length : 00:02:00
Track gain : -6.36 dB
Peak : 0.977631
CRC32 hash (test run) : F77D8C1D
CRC32 hash : F77D8C1D
CRC32 hash (skip zero) : AB3E621D
AccurateRip signature : 1D5C68ED
->Track not present in AccurateRip database.
Statistics
Read error : 0
Skipped (treated as error) : 0
Edge jitter error (maybe fixed) : 0
Atom jitter error (maybe fixed) : 0
Drift error (maybe fixed) : 0
Dropped bytes error (maybe fixed) : 0
Duplicated bytes error (maybe fixed) : 0
Inconsistency in error sectors : 0
Track 04
Filename : /Users/stevenbilodeau/Desktop/XLD Converted Files/04 - Wishes.flac
Pre-gap length : 00:02:00
Track gain : -4.17 dB
Peak : 0.950928
CRC32 hash (test run) : BFF1527A
CRC32 hash : BFF1527A
CRC32 hash (skip zero) : C7124A69
AccurateRip signature : BC25A7A0
->Track not present in AccurateRip database.
Statistics
Read error : 0
Skipped (treated as error) : 0
Edge jitter error (maybe fixed) : 0
Atom jitter error (maybe fixed) : 0
Drift error (maybe fixed) : 0
Dropped bytes error (maybe fixed) : 0
Duplicated bytes error (maybe fixed) : 0
Inconsistency in error sectors : 0
Track 05
Filename : /Users/stevenbilodeau/Desktop/XLD Converted Files/05 - Flying.flac
Pre-gap length : 00:02:00
Track gain : -5.37 dB
Peak : 0.977631
CRC32 hash (test run) : BEE7D55E
CRC32 hash : BEE7D55E
CRC32 hash (skip zero) : 6FA4937C
AccurateRip signature : CF1ED4C6
->Track not present in AccurateRip database.
Statistics
Read error : 0
Skipped (treated as error) : 0
Edge jitter error (maybe fixed) : 0
Atom jitter error (maybe fixed) : 0
Drift error (maybe fixed) : 0
Dropped bytes error (maybe fixed) : 0
Duplicated bytes error (maybe fixed) : 0
Inconsistency in error sectors : 0
Track 06
Filename : /Users/stevenbilodeau/Desktop/XLD Converted Files/06 - Intro To L.L..flac
Pre-gap length : 00:02:00
Track gain : -0.86 dB
Peak : 0.782410
CRC32 hash (test run) : 91A400EC
CRC32 hash : 91A400EC
CRC32 hash (skip zero) : 3907BD05
AccurateRip signature : 0EDE9F46
->Track not present in AccurateRip database.
Statistics
Read error : 0
Skipped (treated as error) : 0
Edge jitter error (maybe fixed) : 0
Atom jitter error (maybe fixed) : 0
Drift error (maybe fixed) : 0
Dropped bytes error (maybe fixed) : 0
Duplicated bytes error (maybe fixed) : 0
Inconsistency in error sectors : 0
Track 07
Filename : /Users/stevenbilodeau/Desktop/XLD Converted Files/07 - L.L..flac
Pre-gap length : 00:02:00
Track gain : -5.21 dB
Peak : 0.977203
CRC32 hash (test run) : 7239CED9
CRC32 hash : 7239CED9
CRC32 hash (skip zero) : CB81CA03
AccurateRip signature : 6B9F343A
->Track not present in AccurateRip database.
Statistics
Read error : 0
Skipped (treated as error) : 0
Edge jitter error (maybe fixed) : 0
Atom jitter error (maybe fixed) : 0
Drift error (maybe fixed) : 0
Dropped bytes error (maybe fixed) : 0
Duplicated bytes error (maybe fixed) : 0
Inconsistency in error sectors : 0
Track 08
Filename : /Users/stevenbilodeau/Desktop/XLD Converted Files/08 - Nefertiti.flac
Pre-gap length : 00:02:00
Track gain : -5.10 dB
Peak : 0.977478
CRC32 hash (test run) : CA64106B
CRC32 hash : CA64106B
CRC32 hash (skip zero) : 9AA6997E
AccurateRip signature : 11A0EFB6
->Track not present in AccurateRip database.
Statistics
Read error : 0
Skipped (treated as error) : 0
Edge jitter error (maybe fixed) : 0
Atom jitter error (maybe fixed) : 0
Drift error (maybe fixed) : 0
Dropped bytes error (maybe fixed) : 0
Duplicated bytes error (maybe fixed) : 0
Inconsistency in error sectors : 0
Track 09
Filename : /Users/stevenbilodeau/Desktop/XLD Converted Files/09 - Vi Ma Yon.flac
Pre-gap length : 00:02:00
Track gain : -6.66 dB
Peak : 0.977325
CRC32 hash (test run) : C4B6AA6F
CRC32 hash : C4B6AA6F
CRC32 hash (skip zero) : D6A585C8
AccurateRip signature : 81FB7D5A
->Track not present in AccurateRip database.
Statistics
Read error : 0
Skipped (treated as error) : 0
Edge jitter error (maybe fixed) : 1
Atom jitter error (maybe fixed) : 0
Drift error (maybe fixed) : 0
Dropped bytes error (maybe fixed) : 1
Duplicated bytes error (maybe fixed) : 0
Inconsistency in error sectors : 0
Track 10
Filename : /Users/stevenbilodeau/Desktop/XLD Converted Files/10 - Shazoo.flac
Pre-gap length : 00:02:00
Track gain : -5.45 dB
Peak : 0.977478
CRC32 hash (test run) : B6EC25C0
CRC32 hash : B6EC25C0
CRC32 hash (skip zero) : CB249076
AccurateRip signature : 4983A7C7
->Track not present in AccurateRip database.
Statistics
Read error : 0
Skipped (treated as error) : 0
Edge jitter error (maybe fixed) : 0
Atom jitter error (maybe fixed) : 0
Drift error (maybe fixed) : 0
Dropped bytes error (maybe fixed) : 0
Duplicated bytes error (maybe fixed) : 0
Inconsistency in error sectors : 0
Track 11
Filename : /Users/stevenbilodeau/Desktop/XLD Converted Files/11 - Dangbe.flac
Pre-gap length : 00:02:00
Track gain : -0.82 dB
Peak : 0.681183
CRC32 hash (test run) : D1DA5816
CRC32 hash : D1DA5816
CRC32 hash (skip zero) : 9E7F9CE7
AccurateRip signature : 5A1E948D
->Track not present in AccurateRip database.
Statistics
Read error : 0
Skipped (treated as error) : 0
Edge jitter error (maybe fixed) : 0
Atom jitter error (maybe fixed) : 0
Drift error (maybe fixed) : 0
Dropped bytes error (maybe fixed) : 0
Duplicated bytes error (maybe fixed) : 0
Inconsistency in error sectors : 0
Track 12
Filename : /Users/stevenbilodeau/Desktop/XLD Converted Files/12 - Hide Life.flac
Pre-gap length : 00:02:00
Track gain : -6.44 dB
Peak : 0.977692
CRC32 hash (test run) : 46AF67EA
CRC32 hash : 46AF67EA
CRC32 hash (skip zero) : 8A102565
AccurateRip signature : F700407E
->Track not present in AccurateRip database.
Statistics
Read error : 0
Skipped (treated as error) : 0
Edge jitter error (maybe fixed) : 0
Atom jitter error (maybe fixed) : 0
Drift error (maybe fixed) : 0
Dropped bytes error (maybe fixed) : 0
Duplicated bytes error (maybe fixed) : 0
Inconsistency in error sectors : 0
No errors occurred
End of status report
 
AudioChecker log
Начато: четверг, 21. 02. 2013. - 19:54.49
Найдено файлов: 12
01 -===- D:\Music\Jazz\Lionel Loueke\Lionel Loueke - Mwaliko (2010) [FLAC]\01 - Ami O.flac
Извлечение успешно выполнено
Заключение: этот трек - CDDA с вероятностью 100%
Временный файл удалён.
02 -===- D:\Music\Jazz\Lionel Loueke\Lionel Loueke - Mwaliko (2010) [FLAC]\02 - Griot.flac
Извлечение успешно выполнено
Заключение: этот трек - CDDA с вероятностью 100%
Временный файл удалён.
03 -===- D:\Music\Jazz\Lionel Loueke\Lionel Loueke - Mwaliko (2010) [FLAC]\03 - Twins.flac
Извлечение успешно выполнено
Заключение: этот трек - CDDA с вероятностью 100%
Временный файл удалён.
04 -===- D:\Music\Jazz\Lionel Loueke\Lionel Loueke - Mwaliko (2010) [FLAC]\04 - Wishes.flac
Извлечение успешно выполнено
Заключение: этот трек - CDDA с вероятностью 100%
Временный файл удалён.
05 -===- D:\Music\Jazz\Lionel Loueke\Lionel Loueke - Mwaliko (2010) [FLAC]\05 - Flying.flac
Извлечение успешно выполнено
Заключение: этот трек - CDDA с вероятностью 100%
Временный файл удалён.
06 -===- D:\Music\Jazz\Lionel Loueke\Lionel Loueke - Mwaliko (2010) [FLAC]\06 - Intro To L.L..flac
Извлечение успешно выполнено
Заключение: этот трек - CDDA с вероятностью 100%
Временный файл удалён.
07 -===- D:\Music\Jazz\Lionel Loueke\Lionel Loueke - Mwaliko (2010) [FLAC]\07 - L.L..flac
Извлечение успешно выполнено
Заключение: этот трек - CDDA с вероятностью 100%
Временный файл удалён.
08 -===- D:\Music\Jazz\Lionel Loueke\Lionel Loueke - Mwaliko (2010) [FLAC]\08 - Nefertiti.flac
Извлечение успешно выполнено
Заключение: этот трек - CDDA с вероятностью 100%
Временный файл удалён.
09 -===- D:\Music\Jazz\Lionel Loueke\Lionel Loueke - Mwaliko (2010) [FLAC]\09 - Vi Ma Yon.flac
Извлечение успешно выполнено
Заключение: этот трек - CDDA с вероятностью 100%
Временный файл удалён.
10 -===- D:\Music\Jazz\Lionel Loueke\Lionel Loueke - Mwaliko (2010) [FLAC]\10 - Shazoo.flac
Извлечение успешно выполнено
Заключение: этот трек - CDDA с вероятностью 100%
Временный файл удалён.
11 -===- D:\Music\Jazz\Lionel Loueke\Lionel Loueke - Mwaliko (2010) [FLAC]\11 - Dangbe.flac
Извлечение успешно выполнено
Заключение: этот трек - CDDA с вероятностью 100%
Временный файл удалён.
12 -===- D:\Music\Jazz\Lionel Loueke\Lionel Loueke - Mwaliko (2010) [FLAC]\12 - Hide Life.flac
Извлечение успешно выполнено
Заключение: этот трек - CDDA с вероятностью 99%
Временный файл удалён.
Завершено: четверг, 21. 02. 2013. - 20:07.19 (Время операции: 0:12.30)
 
Об исполнителе
West African guitarist Lionel Loueke was inspired by his brother, who taught him how to play during his late teenage years. Stops at the Ivory Coast's National Institute of Arts, Paris' American School of More Than Music, and Berklee College of Music led Loueke to appearances on a series of high-profile recordings, including Terence Blanchard's Bounce and Flow, Charlie Haden's Land of the Sun, and Herbie Hancock's Possibilities. Apart from his role in the trio Gilfema (with bassist Massimo Biolcati and drummer Ferenc Nemeth), Loueke has recorded on his own, including the live In a Trance and Virgin Forest. He released his first Blue Note album, Karibu, in 2008. In 2009 Loueke guested on Magos Herrera's album Distancia. His second album for Blue Note, Mwaliko, appeared in early 2010. In 2012, Loueke released the trio album Heritage, which was produced by and features contributions from acclaimed jazz pianist Robert Glasper.
~ Andy Kellman
 
Об альбоме
Mwaliko is West African guitarist Lionel Loueke's second album for Blue Note. Originally planned as a series of duets, it ultimately became one of duets and trios, in order to to showcase the collective talents of Gilfema, his touring band with bassist Massimo Biolcati and drummer Ferenc Nemeth. The trio cuts are at the heart of Loueke’s modern culture-blurring sound. The interplay of Gilfema offers simultaneous harmonic and rhythmic improvisation; Loueke's guitar is as much a part of the rhythm section as it is a melodic lead. The lockstep changes are immediate, instinctive, and seamless, as in “Griot.” Loueke uses his singing voice -- without its other trademark effects of clicking, popping, wet snaps, rapid-fire speech, and solo doubling, etc. The melody is a chant, and establishes a groove that opens a door to improvisation. All three cuts by Gilfema offer straight-ahead jazz fans something to grab onto. The duets, however, add immeasurably to his depth. Loueke and Angélique Kidjo -- whose mothers were friends in Benin -- offer a popping, funky version of “Amio,” a West African anthem written by Ebanda Manfred. Loueke's guitar and vocal effects are a virtual rhythm section with melodic flourishes as Kidjo scats, chants, flits, and soars over them. They also team on the traditional “Vi Ma Yon.” Loueke pairs with Cameroonian bassist and vocalist Richard Bona on “Wishes” and the album closer “Hide Life” (a word and musical game on the West African style highlife). The former is a beautiful, atmospheric ballad, the latter sprightly and playful. Esperanza Spalding's bass makes an excellent counterpart on “Twins,” where she uses her voice in as many ways as he does, and on the jazzier “Flying,” where she trills, slips, and doubles her bassline vocally, just he does on guitar. Drummer Marcus Gilmore is enlisted in an electrifying modern, knotty reading of Wayne Shorter's “Nefertiti.” Mwaliko is an excellent step forward for Loueke, who is quickly proving to be an innovative force in 21st century jazz.
~ Thom Jurek
 
Состав
Lionel Loueke: guitar, vocals
Massimo Biolcati: bass
Richard Bona: bass
Marcus Gilmore: drums
Angelique Kidjo: vocals
Ferenc Nemeth: drums
Esperanza Spalding: bass, vocals
09:24
342
Нет комментариев. Ваш будет первым!