Поиск

(World Fusion, African Jazz) Abdoulaye N'Diaye - Taoue (feat. David Murray, Dave Burrell, Jaribu Shahid, Hamid Drake) - 2003, FLAC (tracks+.cue), lossless

(World Fusion, African Jazz) Abdoulaye N'Diaye - Taoue (feat. David Murray, Dave Burrell, Jaribu Shahid, Hamid Drake) - 2003, FLAC (tracks+.cue), lossless
Треклист:
Abdoulaye N'Diaye / Taoue
Жанр: World Fusion, African Jazz
Год издания: 2003
Издатель (лейбл): Justin Time
Страна: Senegal
Аудиокодек: FLAC (*.flac)
Тип рипа: tracks+.cue
Битрейт аудио: lossless
Продолжительность: 00:51:39
Источник (релизер): damfol
Наличие сканов в содержимом раздачи: нет
Треклист:
1. Aduna (Abdoulaye N'Diaye)
2. Taoué (Abdoulaye N'Diaye)
3. Casa Leule (Traditional)
4. Xarrit Sama (Abdoulaye N'Diaye)
5. Cobb's Cat (Sam Sanders)
6. Wakhtane (Abdoulaye N'Diaye)
7. Darn That Dream (James Van Heusen)
Recorded at Studio Xippi, Dakar, Senegal in May 2001.
youtube
 
Лог создания рипа
Exact Audio Copy V0.99 prebeta 5 from 4. May 2009
EAC extraction logfile from 2. November 2009, 19:11
Abdoulaye N'Diaye / Taouй
Used drive : HL-DT-STDVDRAM GSA-T20N Adapter: 3 ID: 0
Read mode : Secure
Utilize accurate stream : Yes
Defeat audio cache : Yes
Make use of C2 pointers : No
Read offset correction : 667
Overread into Lead-In and Lead-Out : No
Fill up missing offset samples with silence : Yes
Delete leading and trailing silent blocks : No
Null samples used in CRC calculations : Yes
Used interface : Native Win32 interface for Win NT & 2000
Gap handling : Appended to previous track
Used output format : User Defined Encoder
Selected bitrate : 320 kBit/s
Quality : High
Add ID3 tag : No
Command line compressor : C:\Program Files\Exact Audio Copy\Flac\flac.exe
Additional command line options : -V -8 -T "artist=%a" -T "title=%t" -T "album=%g" -T "date=%y" -T "tracknumber=%n" -T "genre=%m" %s
TOC of the extracted CD
Track | Start | Length | Start sector | End sector
---------------------------------------------------------
1 | 0:00.00 | 7:07.57 | 0 | 32081
2 | 7:07.57 | 6:50.68 | 32082 | 62899
3 | 13:58.50 | 9:51.70 | 62900 | 107294
4 | 23:50.45 | 7:40.35 | 107295 | 141829
5 | 31:31.05 | 3:48.62 | 141830 | 158991
6 | 35:19.67 | 8:29.65 | 158992 | 197231
7 | 43:49.57 | 7:47.45 | 197232 | 232301
Track 1
Filename C:\Ripped\Abdoulaye N'Diaye - 2002 - Taouй\01 - Aduna.wav
Pre-gap length 0:00:02.00
Peak level 100.0 %
Track quality 100.0 %
Test CRC E7502D75
Copy CRC E7502D75
Accurately ripped (confidence 1) [3A7E798C]
Copy OK
Track 2
Filename C:\Ripped\Abdoulaye N'Diaye - 2002 - Taouй\02 - Taouй.wav
Pre-gap length 0:00:04.20
Peak level 100.0 %
Track quality 100.0 %
Test CRC 3CF678D8
Copy CRC 3CF678D8
Accurately ripped (confidence 1) [3DD3115D]
Copy OK
Track 3
Filename C:\Ripped\Abdoulaye N'Diaye - 2002 - Taouй\03 - Casa Leule.wav
Pre-gap length 0:00:02.17
Peak level 100.0 %
Track quality 100.0 %
Test CRC BD3C1D93
Copy CRC BD3C1D93
Accurately ripped (confidence 1) [E945B8A6]
Copy OK
Track 4
Filename C:\Ripped\Abdoulaye N'Diaye - 2002 - Taouй\04 - Xarrit Sama.wav
Pre-gap length 0:00:02.66
Peak level 100.0 %
Track quality 100.0 %
Test CRC BAB723ED
Copy CRC BAB723ED
Accurately ripped (confidence 1) [154DD35C]
Copy OK
Track 5
Filename C:\Ripped\Abdoulaye N'Diaye - 2002 - Taouй\05 - Cobb's Cat.wav
Pre-gap length 0:00:04.50
Peak level 100.0 %
Track quality 100.0 %
Test CRC 9961E265
Copy CRC 9961E265
Accurately ripped (confidence 1) [2658F1E9]
Copy OK
Track 6
Filename C:\Ripped\Abdoulaye N'Diaye - 2002 - Taouй\06 - Wakhtane.wav
Pre-gap length 0:00:02.46
Peak level 100.0 %
Track quality 100.0 %
Test CRC B4C611C1
Copy CRC B4C611C1
Accurately ripped (confidence 1) [BF525F26]
Copy OK
Track 7
Filename C:\Ripped\Abdoulaye N'Diaye - 2002 - Taouй\07 - Darn That Dream.wav
Pre-gap length 0:00:02.36
Peak level 100.0 %
Track quality 99.9 %
Test CRC 16A1BFA9
Copy CRC 16A1BFA9
Accurately ripped (confidence 1) [033CF02E]
Copy OK
All tracks accurately ripped
No errors occurred
End of status report
 
Содержание индексной карты (.CUE)
REM DATE 2002
REM DISCID 4E0C1907
REM COMMENT "ExactAudioCopy v0.99pb5"
FILE "01 - Aduna.wav" WAVE
TRACK 01 AUDIO
INDEX 01 00:00:00
TRACK 02 AUDIO
INDEX 00 07:03:42
FILE "02 - Taoué.wav" WAVE
INDEX 01 00:00:00
TRACK 03 AUDIO
INDEX 00 06:48:55
FILE "03 - Casa Leule.wav" WAVE
INDEX 01 00:00:00
TRACK 04 AUDIO
INDEX 00 09:49:20
FILE "04 - Xarrit Sama.wav" WAVE
INDEX 01 00:00:00
TRACK 05 AUDIO
INDEX 00 07:35:72
FILE "05 - Cobb's Cat.wav" WAVE
INDEX 01 00:00:00
TRACK 06 AUDIO
INDEX 00 03:46:27
FILE "06 - Wakhtane.wav" WAVE
INDEX 01 00:00:00
TRACK 07 AUDIO
INDEX 00 08:27:38
FILE "07 - Darn That Dream.wav" WAVE
INDEX 01 00:00:00
 
Об исполнителе (группе)
 
Об альбоме (сборнике)
Taoue (Justin Time) is an Abdoulaye N'Diaye release produced by David Murray. In one of the meatier portions of "Aduna," singer Tidiane Gaye flows Islamic-inflected Wolof vocalizations, after a remarkable kora improvisation, as the performance frees itself into a liberating Afro-jazz romp coda with brain-opening soprano sax closing choruses. N'Diaye's Senegalese musical heritage is avowedly influenced by American jazz sax players as well as his classical conservatory education in Europe. The strong writing and playing of this young musician is at ease with traditional African material, per "Casa Leule," or irresistibly tribal jazzy melodious reedings on "Xarrit Sama." N'Diaye musters any technique available to a saxophonist with a repertoire ranging from bebop, such as "Cobb's Cat"-with an enriched Dave Burrell piano solo-to the relentless marching swing of "Wakhtane" or the hip, sultry, mainstream jazz ballad "Darn That Dream." N'Diaye has enviable intonation, range, intelligence and chameleonic skills as a soprano, alto and tenor sax polyglot. By Javier Quinones
 
Состав
Abdoulaye N'Diaye (soprano, alto & tenor saxophones);
Tidiane Gaye (vocals);
David Murray (tenor saxophone);
Edouard Mohammed Manga (kora);
Cheikhou Kante (bolong);
Dave Burrell (piano);
Jaribu Shahid (bass);
Hamid Drake (drums);
Seydina Djiba (djembe, percussion);
Sady Faza N'Diaye (percussion).
10:25
355
Нет комментариев. Ваш будет первым!