Поиск

(World Fusion, African Jazz, Afro-Cuban Jazz) Randy Weston and his African Rhythms Sextet - The Storyteller (T. K. Blue, Benny Powell, Alex Blake, Neil Clarke, Lewis Nash) - 2010, FLAC (tracks+.cue), lossless

(World Fusion, African Jazz, Afro-Cuban Jazz) Randy Weston and his African Rhythms Sextet - The Storyteller (T. K. Blue, Benny Powell, Alex Blake, Neil Clarke, Lewis Nash) - 2010, FLAC (tracks+.cue), lossless
Треклист:
Randy Weston and his African Rhythms Sextet / The Storyteller: Live at Dizzy's Club Coca-Cola
Жанр: World Fusion, African Jazz, Afro-Cuban Jazz
Год издания: 2010
Издатель (лейбл): Motema
Номер по каталогу: MTM-51
Страна: USA
Аудиокодек: FLAC (*.flac)
Тип рипа: tracks+.cue
Битрейт аудио: lossless
Продолжительность: 01:14:14
Источник (релизер): notfake
Наличие сканов в содержимом раздачи: нет
Треклист:
1. Chano Pozo
2. African Sunrise
3. Tehuti
4. Jus' Blues
5. The Bridge
6. The Shrine
7. Loose Wig
8. Wig Loose
9. Hi Fly
10. Fly Hi
11. Love, The Mystery Of (Guy Warren)
 
Лог создания рипа
Exact Audio Copy V1.0 beta 3 from 29. August 2011
EAC extraction logfile from 21. September 2012, 23:09
Randy Weston and his African Rhythms Sextet / The Storyteller
Used drive : TSSTcorpDVD+-RW TS-H653B Adapter: 2 ID: 0
Read mode : Secure
Utilize accurate stream : Yes
Defeat audio cache : Yes
Make use of C2 pointers : No
Read offset correction : 6
Overread into Lead-In and Lead-Out : No
Fill up missing offset samples with silence : Yes
Delete leading and trailing silent blocks : No
Null samples used in CRC calculations : Yes
Used interface : Installed external ASPI interface
Gap handling : Appended to previous track
Used output format : User Defined Encoder
Selected bitrate : 1024 kBit/s
Quality : High
Add ID3 tag : No
Command line compressor : C:\Program Files (x86)\Exact Audio Copy\Flac\flac.exe
Additional command line options : -8 -V -T "ARTIST=%artist%" -T "TITLE=%title%" -T "ALBUM=%albumtitle%" -T "DATE=%year%" -T "TRACKNUMBER=%tracknr%" -T "GENRE=%genre%" -T "PERFORMER=%albuminterpret%" -T "COMPOSER=%composer%" %haslyrics%--tag-from-file=LYRICS="%lyricsfile%"%haslyrics% -T "ALBUMARTIST=%albumartist%" -T "DISCNUMBER=%cdnumber%" -T "TOTALDISCS=%totalcds%" -T "TOTALTRACKS=%numtracks%" -T "COMMENT=%comment%" %source% -o %dest%
TOC of the extracted CD
Track | Start | Length | Start sector | End sector
---------------------------------------------------------
1 | 0:00.00 | 4:02.06 | 0 | 18155
2 | 4:02.06 | 9:49.07 | 18156 | 62337
3 | 13:51.13 | 2:34.28 | 62338 | 73915
4 | 16:25.41 | 13:52.29 | 73916 | 136344
5 | 30:17.70 | 4:32.57 | 136345 | 156801
6 | 34:50.52 | 11:36.12 | 156802 | 209013
7 | 46:26.64 | 7:22.67 | 209014 | 242230
8 | 53:49.56 | 2:30.35 | 242231 | 253515
9 | 56:20.16 | 9:47.14 | 253516 | 297554
10 | 66:07.30 | 3:47.10 | 297555 | 314589
11 | 69:54.40 | 4:23.56 | 314590 | 334370
Track 1
Filename C:\Randy Weston and his African Rhythms Sextet - 2010 - The Storyteller\01 - Chano Pozo.wav
Pre-gap length 0:00:02.00
Peak level 95.0 %
Extraction speed 4.7 X
Track quality 100.0 %
Test CRC 7382461D
Copy CRC 7382461D
Track not present in AccurateRip database
Copy OK
Track 2
Filename C:\Randy Weston and his African Rhythms Sextet - 2010 - The Storyteller\02 - African Sunrise.wav
Peak level 97.5 %
Extraction speed 5.9 X
Track quality 100.0 %
Test CRC BF33C505
Copy CRC BF33C505
Track not present in AccurateRip database
Copy OK
Track 3
Filename C:\Randy Weston and his African Rhythms Sextet - 2010 - The Storyteller\03 - Tehuti.wav
Peak level 67.7 %
Extraction speed 4.1 X
Track quality 99.9 %
Test CRC FB8558B4
Copy CRC FB8558B4
Track not present in AccurateRip database
Copy OK
Track 4
Filename C:\Randy Weston and his African Rhythms Sextet - 2010 - The Storyteller\04 - Jus' Blues.wav
Peak level 95.8 %
Extraction speed 7.3 X
Track quality 100.0 %
Test CRC 0FE5C3B4
Copy CRC 0FE5C3B4
Track not present in AccurateRip database
Copy OK
Track 5
Filename C:\Randy Weston and his African Rhythms Sextet - 2010 - The Storyteller\05 - The Bridge.wav
Peak level 95.0 %
Extraction speed 7.4 X
Track quality 100.0 %
Test CRC 4CD01C81
Copy CRC 4CD01C81
Track not present in AccurateRip database
Copy OK
Track 6
Filename C:\Randy Weston and his African Rhythms Sextet - 2010 - The Storyteller\06 - The Shrine.wav
Peak level 95.2 %
Extraction speed 8.6 X
Track quality 100.0 %
Test CRC DC1C2FF0
Copy CRC DC1C2FF0
Track not present in AccurateRip database
Copy OK
Track 7
Filename C:\Randy Weston and his African Rhythms Sextet - 2010 - The Storyteller\07 - Loose Wig.wav
Peak level 95.9 %
Extraction speed 7.8 X
Track quality 99.9 %
Test CRC 17B482FD
Copy CRC 17B482FD
Track not present in AccurateRip database
Copy OK
Track 8
Filename C:\Randy Weston and his African Rhythms Sextet - 2010 - The Storyteller\08 - Wig Loose.wav
Peak level 95.9 %
Extraction speed 8.0 X
Track quality 100.0 %
Test CRC BA2E560C
Copy CRC BA2E560C
Track not present in AccurateRip database
Copy OK
Track 9
Filename C:\Randy Weston and his African Rhythms Sextet - 2010 - The Storyteller\09 - Hi Fly.wav
Peak level 92.4 %
Extraction speed 9.7 X
Track quality 100.0 %
Test CRC BA6F71C2
Copy CRC BA6F71C2
Track not present in AccurateRip database
Copy OK
Track 10
Filename C:\Randy Weston and his African Rhythms Sextet - 2010 - The Storyteller\10 - Fly Hi.wav
Peak level 95.5 %
Extraction speed 9.1 X
Track quality 100.0 %
Test CRC 5CB6D57E
Copy CRC 5CB6D57E
Track not present in AccurateRip database
Copy OK
Track 11
Filename C:\Randy Weston and his African Rhythms Sextet - 2010 - The Storyteller\11 - Love, The Mystery Of.wav
Peak level 95.5 %
Extraction speed 9.6 X
Track quality 100.0 %
Test CRC AA434299
Copy CRC AA434299
Track not present in AccurateRip database
Copy OK
None of the tracks are present in the AccurateRip database
No errors occurred
End of status report
==== Log checksum 5BEC025EBF61F2D3BE462D06CD6363B57D560F80A4FC8369BC0CE4F753B14971 ====
 
Содержание индексной карты (.CUE)
REM GENRE Motema
REM DATE 2010
REM DISCID B3116A0B
REM COMMENT "ExactAudioCopy v1.0b3"
PERFORMER "Randy Weston and his African Rhythms Sextet"
TITLE "The Storyteller"
FILE "01 - Chano Pozo.wav" WAVE
TRACK 01 AUDIO
TITLE "Chano Pozo"
PERFORMER "Randy Weston and his African Rhythms Sextet"
FLAGS DCP
INDEX 01 00:00:00
FILE "02 - African Sunrise.wav" WAVE
TRACK 02 AUDIO
TITLE "African Sunrise"
PERFORMER "Randy Weston and his African Rhythms Sextet"
FLAGS DCP
INDEX 01 00:00:00
FILE "03 - Tehuti.wav" WAVE
TRACK 03 AUDIO
TITLE "Tehuti"
PERFORMER "Randy Weston and his African Rhythms Sextet"
FLAGS DCP
INDEX 01 00:00:00
FILE "04 - Jus' Blues.wav" WAVE
TRACK 04 AUDIO
TITLE "Jus' Blues"
PERFORMER "Randy Weston and his African Rhythms Sextet"
FLAGS DCP
INDEX 01 00:00:00
FILE "05 - The Bridge.wav" WAVE
TRACK 05 AUDIO
TITLE "The Bridge"
PERFORMER "Randy Weston and his African Rhythms Sextet"
FLAGS DCP
INDEX 01 00:00:00
FILE "06 - The Shrine.wav" WAVE
TRACK 06 AUDIO
TITLE "The Shrine"
PERFORMER "Randy Weston and his African Rhythms Sextet"
FLAGS DCP
INDEX 01 00:00:00
FILE "07 - Loose Wig.wav" WAVE
TRACK 07 AUDIO
TITLE "Loose Wig"
PERFORMER "Randy Weston and his African Rhythms Sextet"
FLAGS DCP
INDEX 01 00:00:00
FILE "08 - Wig Loose.wav" WAVE
TRACK 08 AUDIO
TITLE "Wig Loose"
PERFORMER "Randy Weston and his African Rhythms Sextet"
FLAGS DCP
INDEX 01 00:00:00
FILE "09 - Hi Fly.wav" WAVE
TRACK 09 AUDIO
TITLE "Hi Fly"
PERFORMER "Randy Weston and his African Rhythms Sextet"
FLAGS DCP
INDEX 01 00:00:00
FILE "10 - Fly Hi.wav" WAVE
TRACK 10 AUDIO
TITLE "Fly Hi"
PERFORMER "Randy Weston and his African Rhythms Sextet"
FLAGS DCP
INDEX 01 00:00:00
FILE "11 - Love, The Mystery Of.wav" WAVE
TRACK 11 AUDIO
TITLE "Love, The Mystery Of"
PERFORMER "Randy Weston and his African Rhythms Sextet"
FLAGS DCP
INDEX 01 00:00:00
 
Об альбоме (сборнике)
 
Состав
Randy Weston - piano
Benny Powell - trombone
T.K. Blue (aka Talib Kibwe) - alto saxophone
Alex Blake - bass
Neil Clarke - percussion
Lewis Nash - drums
10:24
454
Нет комментариев. Ваш будет первым!