Поиск

(World Fusion / Brazilian Traditions / Brazilian Jazz) Wagner Tiso {e convidados} : Wagner Tiso's Brasil (1990) - 1990, FLAC (image+.cue), lossless

Треклист:
Wagner Tiso {e convidados} : Wagner Tiso's Brasil (1990)
Жанр: World Fusion / Brazilian Traditions / Brazilian Jazz
Год выпуска диска: 1990
Производитель диска: Caju Records / 3800 / Switzerland
Аудио кодек: FLAC
Тип рипа: image+.cue
Битрейт аудио: lossless
Продолжительность: 00:48:44
Треклист:
01. Dona Beija (5:56)
02. Dueto Andante (5:02)
03. Santa Efigenia (5:07)
04. Serra Da Boa Esperanca (4:29)
05. Aquarela Do Brasil (5:33)
06. Coracao De Estudante (6:54)
07. Aos Velhos Amigos (6:54)
08. Arraial Das Candongas (4:19)
09. Pai Francisco (5:30)
 
состав и cd
 
Лог EAC
Exact Audio Copy V0.99 prebeta 5 from 4. May 2009
Отчёт EAC об извлечении, выполненном 17. августа 2010, 19:15
Wagner Tiso e convidados / Wagner Tiso's Brasil
Дисковод: SONY DVD RW DRX-S70U Adapter: 1 ID: 0
Режим чтения : Достоверность
Использование точного потока : Да
Отключение кэша аудио : Да
Использование указателей C2 : Нет
Коррекция смещения при чтении : 48
Способность читать области Lead-in и Lead-out : Нет
Заполнение пропущенных сэмплов тишиной : Да
Удаление блоков с тишиной в начале и конце : Нет
При вычислениях CRC использовались нулевые сэмплы : Да
Интерфейс : Встроенный Win32-интерфейс для Win NT/2000
Выходной формат : Пользовательский кодировщик
Выбранный битрейт : 768 kBit/s
Качество : Высокий
Добавление ID3-тэга : Нет
Утилита сжатия : H:\Program Files\Exact Audio Copy\Flac\flac.exe
Дополнительные параметры : -6 -V -T "ARTIST=%a" -T "TITLE=%t" -T "ALBUM=%g" -T "DATE=%y" -T "TRACKNUMBER=%n" -T "GENRE=%m" -T "COMMENT=%e" %s -o %d
TOC извлечённого CD
Трек | Старт | Длительность | Начальный сектор | Конечный сектор
---------------------------------------------------------------------
1 | 0:00.33 | 5:56.22 | 33 | 26754
2 | 5:56.55 | 5:01.48 | 26755 | 49377
3 | 10:58.28 | 5:06.60 | 49378 | 72387
4 | 16:05.13 | 4:29.37 | 72388 | 92599
5 | 20:34.50 | 5:33.00 | 92600 | 117574
6 | 26:07.50 | 6:53.50 | 117575 | 148599
7 | 33:01.25 | 6:53.63 | 148600 | 179637
8 | 39:55.13 | 4:18.47 | 179638 | 199034
9 | 44:13.60 | 5:30.15 | 199035 | 223799
Характеристики диапазона извлечения и сообщения об ошибках
Выбранный диапазон
Имя файла F:\Wagner Tiso e convidados\Wagner Tiso e convidados - Wagner Tiso's Brasil.wav
Пиковый уровень 94.7 %
Качество диапазона 100.0 %
CRC теста 8F16BD09
CRC копии 8F16BD09
Копирование... OK
Ошибок не произошло
AccurateRip: сводка
Трек 1 точное извлечение (доверие 2) [6BD24B8E]
Трек 2 точное извлечение (доверие 2) [9CEAE127]
Трек 3 точное извлечение (доверие 2) [9816F939]
Трек 4 точное извлечение (доверие 2) [24A993F7]
Трек 5 точное извлечение (доверие 2) [AC99C21C]
Трек 6 точное извлечение (доверие 2) [3F5C14A0]
Трек 7 точное извлечение (доверие 2) [81FF0E8B]
Трек 8 точное извлечение (доверие 2) [7279E0A8]
Трек 9 точное извлечение (доверие 2) [8E8DD922]
Все треки извлечены точно
Конец отчёта
 
Лог Audiochecker
AUDIOCHECKER v2.0 beta (build 457) - by Dester - opdester@freemail.hu
~~~~~~~~~~~~~~~~~~~~~~~~~~~~~~~~~~
-=== DO NOT EDIT THIS FILE! ===-
Path: ...\Wagner Tiso e convidados
1 -=- Wagner Tiso e convidados - Wagner Tiso's Brasil.flac -=- CDDA (100%)
19332292
 
*CUE
Код:
REM GENRE Latin
REM DATE 1990
REM DISCID 910BA809
REM COMMENT "ExactAudioCopy v0.99pb5"
PERFORMER "Wagner Tiso e convidados"
TITLE "Wagner Tiso's Brasil"
FILE "Wagner Tiso e convidados - Wagner Tiso's Brasil.flac" WAVE
  TRACK 01 AUDIO
    TITLE "Dona Beija"
    PERFORMER "Wagner Tiso e convidados"
    INDEX 00 00:00:00
    INDEX 01 00:00:33
  TRACK 02 AUDIO
    TITLE "Dueto Andante"
    PERFORMER "Wagner Tiso e convidados"
    INDEX 00 05:56:18
    INDEX 01 05:56:55
  TRACK 03 AUDIO
    TITLE "Santa Efigenia"
    PERFORMER "Wagner Tiso e convidados"
    INDEX 00 10:58:08
    INDEX 01 10:58:28
  TRACK 04 AUDIO
    TITLE "Serra Da Boa Esperanca"
    PERFORMER "Wagner Tiso e convidados"
    INDEX 00 16:05:10
    INDEX 01 16:05:13
  TRACK 05 AUDIO
    TITLE "Aquarela Do Brasil"
    PERFORMER "Wagner Tiso e convidados"
    INDEX 00 20:34:48
    INDEX 01 20:34:50
  TRACK 06 AUDIO
    TITLE "Coracao De Estudante"
    PERFORMER "Wagner Tiso e convidados"
    INDEX 00 26:07:48
    INDEX 01 26:07:50
  TRACK 07 AUDIO
    TITLE "Aos Velhos Amigos"
    PERFORMER "Wagner Tiso e convidados"
    INDEX 00 33:01:23
    INDEX 01 33:01:25
  TRACK 08 AUDIO
    TITLE "Arraial Das Candongas"
    PERFORMER "Wagner Tiso e convidados"
    INDEX 00 39:54:55
    INDEX 01 39:55:13
  TRACK 09 AUDIO
    TITLE "Pai Francisco"
    PERFORMER "Wagner Tiso e convidados"
    INDEX 00 44:13:58
    INDEX 01 44:13:60
рип мой . cd тоже .
17:24
372
Нет комментариев. Ваш будет первым!