Поиск

(Brazilian Traditions / Samba / Bossa Nova) Sergio Mendes : Brasileiro (1992) - 1992, FLAC (tracks+.cue), lossless

Треклист:
Sergio Mendes : Brasileiro (1992)
Жанр: Brazilian Traditions / Samba / Bossa Nova
Год выпуска cd диска: 1992
Производитель cd диска: Elektra / 7559-61315-2 / Germany
Аудио кодек: FLAC
Тип рипа: tracks+.cue
Битрейт аудио: lossless
Продолжительность: 00:52:40
Треклист:
01. Fanfarra (Cabua-Le-Le) (4:05)
02. Magalenha (3:39)
03. Indiado (4:17)
04. What Is This? (4:47)
05. Lua Soberana (4:14)
06. Sambbadouro (3:51)
07. Senhoras Do Amazonas (4:41)
08. Kalimba (4:20)
09. Barabare (3:25)
10. Esconjuros (3:40)
11. Pipoca (3:11)
12. Magano (4:36)
13. Chorado (3:24)
14. Fanfarra (Despidida) (0:30)
 
Лог EAC
Exact Audio Copy V0.99 prebeta 5 from 4. May 2009
Отчёт EAC об извлечении, выполненном 17. августа 2010, 20:55
Sergio Mendes / Brasileiro
Дисковод: SONY DVD RW DRX-S70U Adapter: 1 ID: 0
Режим чтения : Достоверность
Использование точного потока : Да
Отключение кэша аудио : Да
Использование указателей C2 : Нет
Коррекция смещения при чтении : 48
Способность читать области Lead-in и Lead-out : Нет
Заполнение пропущенных сэмплов тишиной : Да
Удаление блоков с тишиной в начале и конце : Нет
При вычислениях CRC использовались нулевые сэмплы : Да
Интерфейс : Встроенный Win32-интерфейс для Win NT/2000
Обработка зазоров : Добавлено к предыдущему треку
Выходной формат : Пользовательский кодировщик
Выбранный битрейт : 768 kBit/s
Качество : Высокий
Добавление ID3-тэга : Нет
Утилита сжатия : H:\Program Files\Exact Audio Copy\Flac\flac.exe
Дополнительные параметры : -6 -V -T "ARTIST=%a" -T "TITLE=%t" -T "ALBUM=%g" -T "DATE=%y" -T "TRACKNUMBER=%n" -T "GENRE=%m" -T "COMMENT=%e" %s -o %d
TOC извлечённого CD
Трек | Старт | Длительность | Начальный сектор | Конечный сектор
---------------------------------------------------------------------
1 | 0:00.00 | 4:04.53 | 0 | 18352
2 | 4:04.53 | 3:39.05 | 18353 | 34782
3 | 7:43.58 | 4:17.15 | 34783 | 54072
4 | 12:00.73 | 4:47.15 | 54073 | 75612
5 | 16:48.13 | 4:13.67 | 75613 | 94654
6 | 21:02.05 | 3:51.28 | 94655 | 112007
7 | 24:53.33 | 4:41.12 | 112008 | 133094
8 | 29:34.45 | 4:19.65 | 133095 | 152584
9 | 33:54.35 | 3:24.43 | 152585 | 167927
10 | 37:19.03 | 3:40.22 | 167928 | 184449
11 | 40:59.25 | 3:10.48 | 184450 | 198747
12 | 44:09.73 | 4:36.17 | 198748 | 219464
13 | 48:46.15 | 3:24.15 | 219465 | 234779
14 | 52:10.30 | 0:29.68 | 234780 | 237022
Трек 1
Имя файла F:\Sergio Mendes\[01]Fanfarra (Cabua-Le-Le).wav
Длина предзазора 0:00:02.00
Пиковый уровень 93.8 %
Качество трека 99.9 %
CRC теста C03FF51E
CRC копии C03FF51E
Точное извлечение (достоверность 24) [FE24E6B8]
Копирование... OK
Трек 2
Имя файла F:\Sergio Mendes\[02]Magalenha.wav
Длина предзазора 0:00:01.60
Пиковый уровень 91.0 %
Качество трека 100.0 %
CRC теста 247B02D9
CRC копии 247B02D9
Точное извлечение (достоверность 23) [6EAA843E]
Копирование... OK
Трек 3
Имя файла F:\Sergio Mendes\[03]Indiado.wav
Длина предзазора 0:00:02.13
Пиковый уровень 92.3 %
Качество трека 100.0 %
CRC теста 0698D934
CRC копии 0698D934
Точное извлечение (достоверность 23) [D6825467]
Копирование... OK
Трек 4
Имя файла F:\Sergio Mendes\[04]What Is This .wav
Длина предзазора 0:00:01.33
Пиковый уровень 100.0 %
Качество трека 99.9 %
CRC теста 2D400045
CRC копии 2D400045
Точное извлечение (достоверность 23) [B57D44FA]
Копирование... OK
Трек 5
Имя файла F:\Sergio Mendes\[05]Lua Soberana.wav
Длина предзазора 0:00:02.00
Пиковый уровень 99.5 %
Качество трека 100.0 %
CRC теста FFBD25C2
CRC копии FFBD25C2
Точное извлечение (достоверность 25) [1D44D409]
Копирование... OK
Трек 6
Имя файла F:\Sergio Mendes\[06]Sambbadouro.wav
Пиковый уровень 94.7 %
Качество трека 100.0 %
CRC теста 47813334
CRC копии 47813334
Точное извлечение (достоверность 25) [8D6C3234]
Копирование... OK
Трек 7
Имя файла F:\Sergio Mendes\[07]Senhoras Do Amazonas.wav
Длина предзазора 0:00:01.04
Пиковый уровень 91.9 %
Качество трека 100.0 %
CRC теста 0F7ADAEF
CRC копии 0F7ADAEF
Точное извлечение (достоверность 25) [B2DDB418]
Копирование... OK
Трек 8
Имя файла F:\Sergio Mendes\[08]Kalimba.wav
Длина предзазора 0:00:00.82
Пиковый уровень 93.1 %
Качество трека 100.0 %
CRC теста 9048323A
CRC копии 9048323A
Точное извлечение (достоверность 25) [62933DE5]
Копирование... OK
Трек 9
Имя файла F:\Sergio Mendes\[09]Barabare.wav
Длина предзазора 0:00:01.96
Пиковый уровень 88.9 %
Качество трека 100.0 %
CRC теста 11EDC5AB
CRC копии 11EDC5AB
Точное извлечение (достоверность 23) [FB2A92B4]
Копирование... OK
Трек 10
Имя файла F:\Sergio Mendes\[10]Esconjuros.wav
Длина предзазора 0:00:01.70
Пиковый уровень 87.9 %
Качество трека 100.0 %
CRC теста C681964D
CRC копии C681964D
Точное извлечение (достоверность 24) [3A767628]
Копирование... OK
Трек 11
Имя файла F:\Sergio Mendes\[11]Pipoca.wav
Длина предзазора 0:00:01.46
Пиковый уровень 97.3 %
Качество трека 100.0 %
CRC теста 4BF0E1B9
CRC копии 4BF0E1B9
Точное извлечение (достоверность 24) [8E89A1EC]
Копирование... OK
Трек 12
Имя файла F:\Sergio Mendes\[12]Magano.wav
Длина предзазора 0:00:01.64
Пиковый уровень 97.2 %
Качество трека 100.0 %
CRC теста 3F78F586
CRC копии 3F78F586
Точное извлечение (достоверность 23) [BA7939F2]
Копирование... OK
Трек 13
Имя файла F:\Sergio Mendes\[13]Chorado.wav
Длина предзазора 0:00:01.42
Пиковый уровень 84.6 %
Качество трека 99.9 %
CRC теста F4ADE376
CRC копии F4ADE376
Точное извлечение (достоверность 23) [7C8382C4]
Копирование... OK
Трек 14
Имя файла F:\Sergio Mendes\[14]Fanfarra (Despidida).wav
Длина предзазора 0:00:00.86
Пиковый уровень 86.7 %
Качество трека 99.6 %
CRC теста F7D8A64A
CRC копии F7D8A64A
Точное извлечение (достоверность 22) [F0F8B2A6]
Копирование... OK
Все треки извлечены точно
Ошибок не произошло
Конец отчёта
 
Лог Audiochecker
AUDIOCHECKER v2.0 beta (build 457) - by Dester - opdester@freemail.hu
~~~~~~~~~~~~~~~~~~~~~~~~~~~~~~~~~~
-=== DO NOT EDIT THIS FILE! ===-
Path: ...\Sergio Mendes
01 -=- [01]Fanfarra (Cabua-Le-Le).flac -=- CDDA (100%)
02 -=- [02]Magalenha.flac -=- CDDA (100%)
03 -=- [03]Indiado.flac -=- CDDA (100%)
04 -=- [04]What Is This .flac -=- CDDA (100%)
05 -=- [05]Lua Soberana.flac -=- CDDA (100%)
06 -=- [06]Sambbadouro.flac -=- CDDA (100%)
07 -=- [07]Senhoras Do Amazonas.flac -=- CDDA (100%)
08 -=- [08]Kalimba.flac -=- CDDA (100%)
09 -=- [09]Barabare.flac -=- CDDA (99%)
10 -=- [10]Esconjuros.flac -=- CDDA (86%)
11 -=- [11]Pipoca.flac -=- CDDA (100%)
12 -=- [12]Magano.flac -=- CDDA (100%)
13 -=- [13]Chorado.flac -=- CDDA (100%)
14 -=- [14]Fanfarra (Despidida).flac -=- CDDA (100%)
Summary 98,93% CDDA
123498036
 
*CUE
Код:
REM GENRE "Bossa, Samba"
REM DATE 1992
REM DISCID AC0C580E
REM COMMENT "ExactAudioCopy v0.99pb5"
PERFORMER "Sergio Mendes"
TITLE "Brasileiro"
FILE "[01]Fanfarra (Cabua-Le-Le).wav" WAVE
  TRACK 01 AUDIO
    TITLE "Fanfarra (Cabua-Le-Le)"
    PERFORMER "Sergio Mendes"
    INDEX 01 00:00:00
  TRACK 02 AUDIO
    TITLE "Magalenha"
    PERFORMER "Sergio Mendes"
    INDEX 00 04:03:08
FILE "[02]Magalenha.wav" WAVE
    INDEX 01 00:00:00
  TRACK 03 AUDIO
    TITLE "Indiado"
    PERFORMER "Sergio Mendes"
    INDEX 00 03:36:70
FILE "[03]Indiado.wav" WAVE
    INDEX 01 00:00:00
  TRACK 04 AUDIO
    TITLE "What Is This?"
    PERFORMER "Sergio Mendes"
    INDEX 00 04:15:65
FILE "[04]What Is This .wav" WAVE
    INDEX 01 00:00:00
  TRACK 05 AUDIO
    TITLE "Lua Soberana"
    PERFORMER "Sergio Mendes"
    INDEX 00 04:45:15
FILE "[05]Lua Soberana.wav" WAVE
    INDEX 01 00:00:00
FILE "[06]Sambbadouro.wav" WAVE
  TRACK 06 AUDIO
    TITLE "Sambbadouro"
    PERFORMER "Sergio Mendes"
    INDEX 01 00:00:00
  TRACK 07 AUDIO
    TITLE "Senhoras Do Amazonas"
    PERFORMER "Sergio Mendes"
    INDEX 00 03:50:25
FILE "[07]Senhoras Do Amazonas.wav" WAVE
    INDEX 01 00:00:00
  TRACK 08 AUDIO
    TITLE "Kalimba"
    PERFORMER "Sergio Mendes"
    INDEX 00 04:40:25
FILE "[08]Kalimba.wav" WAVE
    INDEX 01 00:00:00
  TRACK 09 AUDIO
    TITLE "Barabare"
    PERFORMER "Sergio Mendes"
    INDEX 00 04:17:68
FILE "[09]Barabare.wav" WAVE
    INDEX 01 00:00:00
  TRACK 10 AUDIO
    TITLE "Esconjuros"
    PERFORMER "Sergio Mendes"
    INDEX 00 03:22:65
FILE "[10]Esconjuros.wav" WAVE
    INDEX 01 00:00:00
  TRACK 11 AUDIO
    TITLE "Pipoca"
    PERFORMER "Sergio Mendes"
    INDEX 00 03:38:62
FILE "[11]Pipoca.wav" WAVE
    INDEX 01 00:00:00
  TRACK 12 AUDIO
    TITLE "Magano"
    PERFORMER "Sergio Mendes"
    INDEX 00 03:09:00
FILE "[12]Magano.wav" WAVE
    INDEX 01 00:00:00
  TRACK 13 AUDIO
    TITLE "Chorado"
    PERFORMER "Sergio Mendes"
    INDEX 00 04:34:60
FILE "[13]Chorado.wav" WAVE
    INDEX 01 00:00:00
  TRACK 14 AUDIO
    TITLE "Fanfarra (Despidida)"
    PERFORMER "Sergio Mendes"
    INDEX 00 03:23:25
FILE "[14]Fanfarra (Despidida).wav" WAVE
    INDEX 01 00:00:00
рип мой . cd тоже .
17:25
292
Нет комментариев. Ваш будет первым!