Поиск

(Jazz, Latin) Milton Nascimento - Yauareté - 1987, FLAC (tracks+.cue), lossless

Треклист:
Milton Nascimento - Yauareté
Жанр: Jazz, Latin
Год выпуска диска: 1987
Производитель диска: CBS Records \ Canada
Аудио кодек: FLAC
Тип рипа: tracks+.cue
Битрейт аудио: lossless
Продолжительность: 42:35
Треклист:
01 Planeta Blue [03:38]
02 O Vendedor De Sonhos [04:08]
03 Yauarete [03:00]
04 Cidade Encantada [03:45]
05 Meu Mestre Coracao [03:54]
06 Danca Dos Meninos [03:19]
07 Eldorado [03:39]
08 Carta A Republica [03:25]
09 Morro Velho [05:07]
10 Mountain [04:55]
11 Cancoes E Momentos [03:40]
Собственноручный рип с оригинального диска от funky_cat!
 
Log EAC
Exact Audio Copy V0.99 prebeta 5 from 4. May 2009
EAC extraction logfile from 16. August 2010, 14:46
Milton Nascimento / Yauarete
Used drive : Optiarc DVD RW AD-5200A Adapter: 1 ID: 0
Read mode : Secure
Utilize accurate stream : Yes
Defeat audio cache : Yes
Make use of C2 pointers : No
Read offset correction : 48
Overread into Lead-In and Lead-Out : No
Fill up missing offset samples with silence : Yes
Delete leading and trailing silent blocks : No
Null samples used in CRC calculations : Yes
Used interface : Native Win32 interface for Win NT & 2000
Gap handling : Appended to previous track
Used output format : User Defined Encoder
Selected bitrate : 128 kBit/s
Quality : High
Add ID3 tag : No
Command line compressor : C:\Program Files\FLAC\flac.exe
Additional command line options : -5 -V -T "ARTIST=%a" -T "TITLE=%t" -T "ALBUM=%g" -T "DATE=%y" -T "TRACKNUMBER=%n" -T "GENRE=%m" -T "COMMENT=Ripped by andygrakoff aka yetiisyou" %s
TOC of the extracted CD
Track | Start | Length | Start sector | End sector
---------------------------------------------------------
1 | 0:00.00 | 3:38.40 | 0 | 16389
2 | 3:38.40 | 4:08.47 | 16390 | 35036
3 | 7:47.12 | 3:00.40 | 35037 | 48576
4 | 10:47.52 | 3:45.55 | 48577 | 65506
5 | 14:33.32 | 3:54.45 | 65507 | 83101
6 | 18:28.02 | 3:19.18 | 83102 | 98044
7 | 21:47.20 | 3:39.42 | 98045 | 114511
8 | 25:26.62 | 3:25.25 | 114512 | 129911
9 | 28:52.12 | 5:07.13 | 129912 | 152949
10 | 33:59.25 | 4:55.40 | 152950 | 175114
11 | 38:54.65 | 3:40.12 | 175115 | 191626
Track 1
Filename E:\!Rips\Milton Nascimento - Yauarete (CK 44277)\01 – Planeta Blue.wav
Pre-gap length 0:00:02.00
Peak level 92.2 %
Track quality 100.0 %
Test CRC 5DC2DDBB
Copy CRC 5DC2DDBB
Cannot be verified as accurate (confidence 2) [C7DE8C23], AccurateRip returned [B4195A89]
Copy OK
Track 2
Filename E:\!Rips\Milton Nascimento - Yauarete (CK 44277)\02 – O Vendedor De Sonhos.wav
Peak level 91.1 %
Track quality 100.0 %
Test CRC 690F0D7F
Copy CRC 690F0D7F
Cannot be verified as accurate (confidence 2) [B74B6C76], AccurateRip returned [02542E38]
Copy OK
Track 3
Filename E:\!Rips\Milton Nascimento - Yauarete (CK 44277)\03 – Yauarete.wav
Peak level 94.1 %
Track quality 100.0 %
Test CRC 68CDD1AE
Copy CRC 68CDD1AE
Cannot be verified as accurate (confidence 2) [EAFC6312], AccurateRip returned [015E5616]
Copy OK
Track 4
Filename E:\!Rips\Milton Nascimento - Yauarete (CK 44277)\04 – Cidade Encantada.wav
Peak level 93.6 %
Track quality 100.0 %
Test CRC AC5EC72A
Copy CRC AC5EC72A
Cannot be verified as accurate (confidence 2) [FE7FABE5], AccurateRip returned [DD7BD307]
Copy OK
Track 5
Filename E:\!Rips\Milton Nascimento - Yauarete (CK 44277)\05 – Meu Mestre Coracao.wav
Peak level 84.5 %
Track quality 100.0 %
Test CRC 2CA09512
Copy CRC 2CA09512
Cannot be verified as accurate (confidence 2) [17A58835], AccurateRip returned [ADE33081]
Copy OK
Track 6
Filename E:\!Rips\Milton Nascimento - Yauarete (CK 44277)\06 – Danca Dos Meninos.wav
Peak level 85.1 %
Track quality 99.9 %
Test CRC EBF64E14
Copy CRC EBF64E14
Cannot be verified as accurate (confidence 2) [AB77A4D8], AccurateRip returned [0268EE24]
Copy OK
Track 7
Filename E:\!Rips\Milton Nascimento - Yauarete (CK 44277)\07 – Eldorado.wav
Peak level 94.8 %
Track quality 100.0 %
Test CRC F1C11FC9
Copy CRC F1C11FC9
Cannot be verified as accurate (confidence 2) [AEDE7C2E], AccurateRip returned [BA76E68C]
Copy OK
Track 8
Filename E:\!Rips\Milton Nascimento - Yauarete (CK 44277)\08 – Carta A Republica.wav
Peak level 98.5 %
Track quality 100.0 %
Test CRC 6D22607A
Copy CRC 6D22607A
Cannot be verified as accurate (confidence 2) [5A58FC5B], AccurateRip returned [3F668CEF]
Copy OK
Track 9
Filename E:\!Rips\Milton Nascimento - Yauarete (CK 44277)\09 – Morro Velho.wav
Peak level 92.5 %
Track quality 99.9 %
Test CRC BD46749F
Copy CRC BD46749F
Cannot be verified as accurate (confidence 2) [6005E8E7], AccurateRip returned [637C7B51]
Copy OK
Track 10
Filename E:\!Rips\Milton Nascimento - Yauarete (CK 44277)\10 – Mountain.wav
Peak level 94.9 %
Track quality 99.9 %
Test CRC 150D1F3E
Copy CRC 150D1F3E
Cannot be verified as accurate (confidence 2) [43DB55DD], AccurateRip returned [545374BD]
Copy OK
Track 11
Filename E:\!Rips\Milton Nascimento - Yauarete (CK 44277)\11 – Cancoes E Momentos.wav
Peak level 90.8 %
Track quality 99.9 %
Test CRC 650465A0
Copy CRC 650465A0
Cannot be verified as accurate (confidence 2) [69871F50], AccurateRip returned [7184E5AD]
Copy OK
No tracks could be verified as accurate
You may have a different pressing from the one(s) in the database
No errors occurred
End of status report
 
CUE
REM DATE 1987
REM DISCID 8409FB0B
REM COMMENT "ExactAudioCopy v0.99pb5"
PERFORMER "Milton Nascimento"
TITLE "Yauarete"
FILE "01 – Planeta Blue.wav" WAVE
TRACK 01 AUDIO
TITLE "Planeta Blue"
PERFORMER "Milton Nascimento"
INDEX 01 00:00:00
FILE "02 – O Vendedor De Sonhos.wav" WAVE
TRACK 02 AUDIO
TITLE "O Vendedor De Sonhos"
PERFORMER "Milton Nascimento"
INDEX 01 00:00:00
FILE "03 – Yauarete.wav" WAVE
TRACK 03 AUDIO
TITLE "Yauarete"
PERFORMER "Milton Nascimento"
INDEX 01 00:00:00
FILE "04 – Cidade Encantada.wav" WAVE
TRACK 04 AUDIO
TITLE "Cidade Encantada"
PERFORMER "Milton Nascimento"
INDEX 01 00:00:00
FILE "05 – Meu Mestre Coracao.wav" WAVE
TRACK 05 AUDIO
TITLE "Meu Mestre Coracao"
PERFORMER "Milton Nascimento"
INDEX 01 00:00:00
FILE "06 – Danca Dos Meninos.wav" WAVE
TRACK 06 AUDIO
TITLE "Danca Dos Meninos"
PERFORMER "Milton Nascimento"
INDEX 01 00:00:00
FILE "07 – Eldorado.wav" WAVE
TRACK 07 AUDIO
TITLE "Eldorado"
PERFORMER "Milton Nascimento"
INDEX 01 00:00:00
FILE "08 – Carta A Republica.wav" WAVE
TRACK 08 AUDIO
TITLE "Carta A Republica"
PERFORMER "Milton Nascimento"
INDEX 01 00:00:00
FILE "09 – Morro Velho.wav" WAVE
TRACK 09 AUDIO
TITLE "Morro Velho"
PERFORMER "Milton Nascimento"
INDEX 01 00:00:00
FILE "10 – Mountain.wav" WAVE
TRACK 10 AUDIO
TITLE "Mountain"
PERFORMER "Milton Nascimento"
INDEX 01 00:00:00
FILE "11 – Cancoes E Momentos.wav" WAVE
TRACK 11 AUDIO
TITLE "Cancoes E Momentos"
PERFORMER "Milton Nascimento"
INDEX 01 00:00:00
16:23
337
Нет комментариев. Ваш будет первым!