Вы используете незарегистрированную версию компонента "Вкладки"!

Поиск

(World Fusion, Brazilian Jazz, Bossa Nova) Laurindo Almeida - The Look of Love and the Sounds of Laurindo Almeida (Japan Edition) - 1968, FLAC (image+.cue), lossless

(World Fusion, Brazilian Jazz, Bossa Nova) Laurindo Almeida - The Look of Love and the Sounds of Laurindo Almeida (Japan Edition) - 1968, FLAC (image+.cue), lossless
Треклист:
Laurindo Almeida - The Look of Love and the Sounds of Laurindo Almeida
Жанр: World Fusion, Brazilian Jazz, Bossa Nova
Страна-производитель диска: Япония
Год издания диска: 2011
Издатель (лейбл): Capitol / EMI
Номер по каталогу: TOCJ-50103
Аудиокодек: FLAC (*.flac)
Тип рипа: image+.cue
Битрейт аудио: lossless
Продолжительность: 30:12
Источник (релизер): диск из моей коллекции
Наличие сканов в содержимом раздачи: да
Треклист:
01. Windy (Friedman) - 2:26
02. Angel Eyes (Brent-Dennis) - 3:03
03. I Love You (Porter) - 2:23
04. Up, Up and Away (Webb) - 2:34
05. Don't Sleep in the Subway (Hatch-Trent) - 3:09
06. The Look of Love (David-Bacharach) - 2:24
07. When I Look in Your Eyes (Bricusse) - 3:10
08. Alfie (David-Bacharach) - 2:51
09. A Beautiful Friendship (Kahn-Styne) - 2:45
10. Simplicidade (Gnattali) - 2:24
11. My Own True Love (Steiner-David) - 2:33
Состав:
Laurindo Almeida - guitar with Strings
 
Лог создания рипа
Exact Audio Copy V1.0 beta 1 from 15. November 2010
EAC extraction logfile from 17. March 2012, 17:35
Laurindo Almeida / The Look of Love
Used drive : ASUS DRW-24B1LT Adapter: 5 ID: 0
Read mode : Secure
Utilize accurate stream : Yes
Defeat audio cache : Yes
Make use of C2 pointers : No
Read offset correction : 6
Overread into Lead-In and Lead-Out : No
Fill up missing offset samples with silence : Yes
Delete leading and trailing silent blocks : No
Null samples used in CRC calculations : Yes
Used interface : Native Win32 interface for Win NT & 2000
Used output format : User Defined Encoder
Selected bitrate : 768 kBit/s
Quality : High
Add ID3 tag : No
Command line compressor : C:\Program Files\Exact Audio Copy\Flac\flac.exe
Additional command line options : -8 -V -T "ARTIST=%a" -T "TITLE=%t" -T "ALBUM=%g" -T "DATE=%y" -T "TRACKNUMBER=%n" -T "TOTALTRACKS=%x" -T "GENRE=%m" -T "ALBUMARTIST=%v" -T "ALBUM ARTIST=%v" -T "COMMENT=EAC Secure Mode, Test & Copy, AccurateRip, FLAC -8" %s
TOC of the extracted CD
Track | Start | Length | Start sector | End sector
---------------------------------------------------------
1 | 0:00.00 | 2:28.52 | 0 | 11151
2 | 2:28.52 | 3:06.21 | 11152 | 25122
3 | 5:34.73 | 2:26.08 | 25123 | 36080
4 | 8:01.06 | 2:36.48 | 36081 | 47828
5 | 10:37.54 | 3:12.21 | 47829 | 62249
6 | 13:50.00 | 2:27.11 | 62250 | 73285
7 | 16:17.11 | 3:13.24 | 73286 | 87784
8 | 19:30.35 | 2:54.13 | 87785 | 100847
9 | 22:24.48 | 2:47.29 | 100848 | 113401
10 | 25:12.02 | 2:26.56 | 113402 | 124407
11 | 27:38.58 | 2:33.33 | 124408 | 135915
Range status and errors
Selected range
Filename F:\audio\Laurindo Almeida - The Look of Love.wav
Peak level 99.3 %
Extraction speed 0.2 X
Range quality 100.0 %
Test CRC A1C473F5
Copy CRC A1C473F5
Copy OK
No errors occurred
AccurateRip summary
Track 1 accurately ripped (confidence 1) [C049B193]
Track 2 accurately ripped (confidence 1) [9E5A0B79]
Track 3 accurately ripped (confidence 1) [BC7FD094]
Track 4 accurately ripped (confidence 1) [B73E0869]
Track 5 accurately ripped (confidence 1) [2E84DBC1]
Track 6 accurately ripped (confidence 1) [26FDFAA9]
Track 7 accurately ripped (confidence 1) [6EED070B]
Track 8 accurately ripped (confidence 1) [AF93CC3A]
Track 9 accurately ripped (confidence 1) [4927129B]
Track 10 accurately ripped (confidence 1) [FA9DD1CF]
Track 11 accurately ripped (confidence 1) [0F961061]
All tracks accurately ripped
End of status report
==== Log checksum 30ABFA5263687E3B045A36CD80CFE1ECDC434A3F6A780F8B57C60CAC66BE726D ====
 
Содержание индексной карты (.CUE)
REM GENRE Jazz
REM DATE 1968
REM DISCID 8C07140B
REM COMMENT "ExactAudioCopy v1.0b1"
PERFORMER "Laurindo Almeida"
TITLE "The Look of Love"
FILE "Laurindo Almeida - The Look of Love.wav" WAVE
TRACK 01 AUDIO
TITLE "Windy"
PERFORMER "Laurindo Almeida"
INDEX 01 00:00:00
TRACK 02 AUDIO
TITLE "Angel Eyes"
PERFORMER "Laurindo Almeida"
INDEX 00 02:26:24
INDEX 01 02:28:52
TRACK 03 AUDIO
TITLE "I Love You"
PERFORMER "Laurindo Almeida"
INDEX 00 05:32:45
INDEX 01 05:34:73
TRACK 04 AUDIO
TITLE "Up, Up and Away"
PERFORMER "Laurindo Almeida"
INDEX 00 07:58:53
INDEX 01 08:01:06
TRACK 05 AUDIO
TITLE "Don't Sleep in the Subway"
PERFORMER "Laurindo Almeida"
INDEX 00 10:35:26
INDEX 01 10:37:54
TRACK 06 AUDIO
TITLE "The Look of Love"
PERFORMER "Laurindo Almeida"
INDEX 00 13:47:46
INDEX 01 13:50:00
TRACK 07 AUDIO
TITLE "When I Look in Your Eyes"
PERFORMER "Laurindo Almeida"
INDEX 00 16:14:58
INDEX 01 16:17:11
TRACK 08 AUDIO
TITLE "Alfie"
PERFORMER "Laurindo Almeida"
INDEX 00 19:28:07
INDEX 01 19:30:35
TRACK 09 AUDIO
TITLE "A Beautiful Friendship"
PERFORMER "Laurindo Almeida"
INDEX 00 22:22:20
INDEX 01 22:24:48
TRACK 10 AUDIO
TITLE "Simplicidade"
PERFORMER "Laurindo Almeida"
INDEX 00 25:09:49
INDEX 01 25:12:02
TRACK 11 AUDIO
TITLE "My Own True Love"
PERFORMER "Laurindo Almeida"
INDEX 00 27:36:29
INDEX 01 27:38:58
Any questions - support@pro-jazz.com. Есть вопросы - support@pro-jazz.com
03:09
241
Нет комментариев. Ваш будет первым!