Поиск

(World Fusion, Brazilian Jazz, Bossa Nova) Laurindo Almeida - Guitar from Ipanema (Japan Edition) - 1964, FLAC (image+.cue), lossless

(World Fusion, Brazilian Jazz, Bossa Nova) Laurindo Almeida - Guitar from Ipanema (Japan Edition) - 1964, FLAC (image+.cue), lossless
Треклист:
Laurindo Almeida - Guitar from Ipanema
Жанр: World Fusion, Brazilian Jazz, Bossa Nova
Страна-производитель диска: Япония
Год издания диска: 2011
Издатель (лейбл): Capitol / EMI
Номер по каталогу: TOCJ-50154
Аудиокодек: FLAC (*.flac)
Тип рипа: image+.cue
Битрейт аудио: lossless
Продолжительность: 30:06
Источник (релизер): диск из моей коллекции
Наличие сканов в содержимом раздачи: да
Треклист:
01. Girl from Ipanema (De Moraes-Gimbel-Jobim) - 2:18
02. Manha de Carnaval (Maria-Bonfa) - 3:08
03. Sarah's Samba (Almeida) - 2:06
04. Winter Moon (Almeida) - 2:56
05. Izabella (Ferreira) - 2:32
06. Choro for People in Love (Almeida) - 2:47
07. Quiet Nights of Quiet Stars (Corcovado) (Lees-Jobim) - 2:41
08. Old Guitaron (Mercer-Almeida) - 3:49
09. Um Abraco no Bonfa (Gilberto) - 2:11
10. Twilight in Rio (Almeida) - 3:02
11. The Fiddler's Wolf Whistle (Lemos) - 2:10
Состав:
Harry Klee, Justin Gordon - flute
George Fields - harmonica
Laurindo Almeida, Al Hendrickson - guitar
Jack Marshall - guitar, whistling
Djalma Ferreira - organ
Fafa Lemos - violin
+ rhythms
Irene Kral - voice
Recorded in Los Angeles on September 1-3, 1964.
 
Лог создания рипа
Exact Audio Copy V1.0 beta 1 from 15. November 2010
EAC extraction logfile from 17. March 2012, 23:41
Laurindo Almeida / Guitar from Ipanema
Used drive : ASUS DRW-24B1LT Adapter: 5 ID: 0
Read mode : Secure
Utilize accurate stream : Yes
Defeat audio cache : Yes
Make use of C2 pointers : No
Read offset correction : 6
Overread into Lead-In and Lead-Out : No
Fill up missing offset samples with silence : Yes
Delete leading and trailing silent blocks : No
Null samples used in CRC calculations : Yes
Used interface : Native Win32 interface for Win NT & 2000
Used output format : User Defined Encoder
Selected bitrate : 768 kBit/s
Quality : High
Add ID3 tag : No
Command line compressor : C:\Program Files\Exact Audio Copy\Flac\flac.exe
Additional command line options : -8 -V -T "ARTIST=%a" -T "TITLE=%t" -T "ALBUM=%g" -T "DATE=%y" -T "TRACKNUMBER=%n" -T "TOTALTRACKS=%x" -T "GENRE=%m" -T "ALBUMARTIST=%v" -T "ALBUM ARTIST=%v" -T "COMMENT=EAC Secure Mode, Test & Copy, AccurateRip, FLAC -8" %s
TOC of the extracted CD
Track | Start | Length | Start sector | End sector
---------------------------------------------------------
1 | 0:00.00 | 2:20.59 | 0 | 10558
2 | 2:20.59 | 3:10.42 | 10559 | 24850
3 | 5:31.26 | 2:08.47 | 24851 | 34497
4 | 7:39.73 | 2:59.05 | 34498 | 47927
5 | 10:39.03 | 2:34.49 | 47928 | 59526
6 | 13:13.52 | 2:49.23 | 59527 | 72224
7 | 16:03.00 | 2:43.30 | 72225 | 84479
8 | 18:46.30 | 3:51.49 | 84480 | 101853
9 | 22:38.04 | 2:13.25 | 101854 | 111853
10 | 24:51.29 | 3:04.54 | 111854 | 125707
11 | 27:56.08 | 2:10.24 | 125708 | 135481
Range status and errors
Selected range
Filename F:\audio\Laurindo Almeida - Guitar from Ipanema.wav
Peak level 100.0 %
Extraction speed 0.3 X
Range quality 99.9 %
Test CRC 424541AD
Copy CRC 424541AD
Copy OK
No errors occurred
AccurateRip summary
Track 1 not present in database
Track 2 not present in database
Track 3 not present in database
Track 4 not present in database
Track 5 not present in database
Track 6 not present in database
Track 7 not present in database
Track 8 not present in database
Track 9 not present in database
Track 10 not present in database
Track 11 not present in database
None of the tracks are present in the AccurateRip database
End of status report
==== Log checksum FFE822A10B3CB6662006828AE917EF2B030629D948DC955AA89B3E19E7C68A03 ====
 
Содержание индексной карты (.CUE)
REM GENRE Jazz
REM DATE 1964
REM DISCID 8E070E0B
REM COMMENT "ExactAudioCopy v1.0b1"
PERFORMER "Laurindo Almeida"
TITLE "Guitar from Ipanema"
FILE "Laurindo Almeida - Guitar from Ipanema.wav" WAVE
TRACK 01 AUDIO
TITLE "Girl from Ipanema"
PERFORMER "Laurindo Almeida"
INDEX 01 00:00:00
TRACK 02 AUDIO
TITLE "Manha de Carnaval"
PERFORMER "Laurindo Almeida"
INDEX 00 02:18:41
INDEX 01 02:20:59
TRACK 03 AUDIO
TITLE "Sarah's Samba"
PERFORMER "Laurindo Almeida"
INDEX 00 05:29:08
INDEX 01 05:31:26
TRACK 04 AUDIO
TITLE "Winter Moon"
PERFORMER "Laurindo Almeida"
INDEX 00 07:37:55
INDEX 01 07:39:73
TRACK 05 AUDIO
TITLE "Izabella"
PERFORMER "Laurindo Almeida"
INDEX 00 10:36:60
INDEX 01 10:39:03
TRACK 06 AUDIO
TITLE "Choro for People in Love"
PERFORMER "Laurindo Almeida"
INDEX 00 13:11:34
INDEX 01 13:13:52
TRACK 07 AUDIO
TITLE "Quiet Nights of Quiet Stars"
PERFORMER "Laurindo Almeida"
INDEX 00 16:00:57
INDEX 01 16:03:00
TRACK 08 AUDIO
TITLE "Old Guitaron"
PERFORMER "Laurindo Almeida"
INDEX 00 18:44:12
INDEX 01 18:46:30
TRACK 09 AUDIO
TITLE "Um Abraco No Bonfa"
PERFORMER "Laurindo Almeida"
INDEX 00 22:35:61
INDEX 01 22:38:04
TRACK 10 AUDIO
TITLE "Twilight in Rio"
PERFORMER "Laurindo Almeida"
INDEX 00 24:49:11
INDEX 01 24:51:29
TRACK 11 AUDIO
TITLE "The Fiddler's Wolf Whistle"
PERFORMER "Laurindo Almeida"
INDEX 00 27:53:65
INDEX 01 27:56:08
 
Review by Scott Yanow
It is a bit ironic that guitarist Laurindo Almeida found himself in the 1960's jumping on the bossa-nova bandwagon a bit late for he had actually pioneered the movement a decade earlier. The Brazilian guitarist plays well enough on the 11 bossa tunes included on this out-of-print Lp (mostly originals plus covers of "The Girl From Ipanema," "Manha De Carnaval" and "Quiet Nights Of Quiet Stars") but the arrangements (which sometimes utilize the whistling of Jack Marshall, George Field's harmonica and flutist Harry Klee among others) are commercial and overly concise; all but two of the songs are under three minutes. Irene Kral's two vocals (quite early in her career) are a plus and the music is quite pleasing but there are no surprises.
03:10
502
Нет комментариев. Ваш будет первым!