Поиск

(World Fusion, Brazilian Jazz, Bossa Nova) Laurindo Almeida & The Bossa Nova All Stars - It's a Bossa Nova World (Japan Edition) - 1963, FLAC (image+.cue), lossless

Треклист:
Laurindo Almeida & The Bossa Nova All Stars - It's a Bossa Nova World
Жанр: World Fusion, Brazilian Jazz, Bossa Nova
Страна-производитель диска: Япония
Год издания диска: 2011
Издатель (лейбл): Capitol / EMI
Номер по каталогу: TOCJ-50207
Аудиокодек: FLAC (*.flac)
Тип рипа: image+.cue
Битрейт аудио: lossless
Продолжительность: 29:54
Источник (релизер): диск из моей коллекции
Наличие сканов в содержимом раздачи: да
Треклист:
01. Tie Me Kangaroo Down, Sport (Harris) - 2:25
02. I Will Follow Him (Chariot) (Altman-Gimbel-Stole-Roma) - 2:28
03. Sukiyaki (Ei-Nakamura) - 2:13
04. Say Wonderful Things (Newell-Green) - 1:51
05. Misirlou (Leeds-Russell-Wise-Roubanis) - 2:44
06. Song of the Islands (King) - 2:27
07. Danke Schoen (Schwabach-Gabler-Kaempfert) - 2:28
08. Till Then (Seiler-Marcus-Wood) - 3:20
09. Lisboa Antigua (Portela-Do Vale-Galhardo) - 2:16
10. More (Newell-Ortolani-Oliviero-Ciorciolini) - 2:26
11. Rio Bonito (Beautiful Rio) (Aldean-Nelson) - 2:47
12. Hava Nagila (Trad.-Taxe-Gould) - 1:58
Состав:
Laurindo Almeida - gut guitar, 12-string guitar, cavaquinha
Howard Roberts - electric guitar
Jimmie Rowles - electronic organ
Max Bennett - bass
Shelly Manne, Victor Feldman, Chico Guerrero - percussion
Don Fagerquist - trumpet
Justin Gordon - flute
Bob Cooper - tenor saxophone
 
Лог создания рипа
Exact Audio Copy V1.0 beta 1 from 15. November 2010
EAC extraction logfile from 18. March 2012, 0:32
Laurindo Almeida / It's a Bossa Nova World
Used drive : ASUS DRW-24B1LT Adapter: 5 ID: 0
Read mode : Secure
Utilize accurate stream : Yes
Defeat audio cache : Yes
Make use of C2 pointers : No
Read offset correction : 6
Overread into Lead-In and Lead-Out : No
Fill up missing offset samples with silence : Yes
Delete leading and trailing silent blocks : No
Null samples used in CRC calculations : Yes
Used interface : Native Win32 interface for Win NT & 2000
Used output format : User Defined Encoder
Selected bitrate : 768 kBit/s
Quality : High
Add ID3 tag : No
Command line compressor : C:\Program Files\Exact Audio Copy\Flac\flac.exe
Additional command line options : -8 -V -T "ARTIST=%a" -T "TITLE=%t" -T "ALBUM=%g" -T "DATE=%y" -T "TRACKNUMBER=%n" -T "TOTALTRACKS=%x" -T "GENRE=%m" -T "ALBUMARTIST=%v" -T "ALBUM ARTIST=%v" -T "COMMENT=EAC Secure Mode, Test & Copy, AccurateRip, FLAC -8" %s
TOC of the extracted CD
Track | Start | Length | Start sector | End sector
---------------------------------------------------------
1 | 0:00.00 | 2:27.74 | 0 | 11098
2 | 2:27.74 | 2:30.62 | 11099 | 22410
3 | 4:58.61 | 2:15.66 | 22411 | 32601
4 | 7:14.52 | 1:53.49 | 32602 | 41125
5 | 9:08.26 | 2:46.62 | 41126 | 53637
6 | 11:55.13 | 2:30.00 | 53638 | 64887
7 | 14:25.13 | 2:30.67 | 64888 | 76204
8 | 16:56.05 | 3:22.31 | 76205 | 91385
9 | 20:18.36 | 2:18.39 | 91386 | 101774
10 | 22:37.00 | 2:28.70 | 101775 | 112944
11 | 25:05.70 | 2:49.33 | 112945 | 125652
12 | 27:55.28 | 1:58.52 | 125653 | 134554
Range status and errors
Selected range
Filename F:\audio\Laurindo Almeida - It's a Bossa Nova World.wav
Peak level 98.9 %
Extraction speed 0.3 X
Range quality 100.0 %
Test CRC 67B14DC3
Copy CRC 67B14DC3
Copy OK
No errors occurred
AccurateRip summary
Track 1 not present in database
Track 2 not present in database
Track 3 not present in database
Track 4 not present in database
Track 5 not present in database
Track 6 not present in database
Track 7 not present in database
Track 8 not present in database
Track 9 not present in database
Track 10 not present in database
Track 11 not present in database
Track 12 not present in database
None of the tracks are present in the AccurateRip database
End of status report
==== Log checksum 9BC3CB9FA37F8107A13CD963D79D548A4EFEFC5E50A6D653AF630A1C8C343D6C ====
 
Содержание индексной карты (.CUE)
REM GENRE Jazz
REM DATE 1963
REM DISCID 9107020C
REM COMMENT "ExactAudioCopy v1.0b1"
PERFORMER "Laurindo Almeida"
TITLE "It's a Bossa Nova World"
FILE "Laurindo Almeida - It's a Bossa Nova World.wav" WAVE
TRACK 01 AUDIO
TITLE "Tie Me Kangaroo Down, Sport"
PERFORMER "Laurindo Almeida"
INDEX 01 00:00:00
TRACK 02 AUDIO
TITLE "I Will Follow Him (Chariot)"
PERFORMER "Laurindo Almeida"
INDEX 00 02:25:46
INDEX 01 02:27:74
TRACK 03 AUDIO
TITLE "Sukiyaki"
PERFORMER "Laurindo Almeida"
INDEX 00 04:56:33
INDEX 01 04:58:61
TRACK 04 AUDIO
TITLE "Say Wonderful Things"
PERFORMER "Laurindo Almeida"
INDEX 00 07:12:24
INDEX 01 07:14:52
TRACK 05 AUDIO
TITLE "Misirlou"
PERFORMER "Laurindo Almeida"
INDEX 00 09:05:73
INDEX 01 09:08:26
TRACK 06 AUDIO
TITLE "Song of the Islands"
PERFORMER "Laurindo Almeida"
INDEX 00 11:52:60
INDEX 01 11:55:13
TRACK 07 AUDIO
TITLE "Danke Schoen"
PERFORMER "Laurindo Almeida"
INDEX 00 14:22:60
INDEX 01 14:25:13
TRACK 08 AUDIO
TITLE "Till Then"
PERFORMER "Laurindo Almeida"
INDEX 00 16:53:52
INDEX 01 16:56:05
TRACK 09 AUDIO
TITLE "Lisbon Antigua"
PERFORMER "Laurindo Almeida"
INDEX 00 20:16:08
INDEX 01 20:18:36
TRACK 10 AUDIO
TITLE "More"
PERFORMER "Laurindo Almeida"
INDEX 00 22:34:47
INDEX 01 22:37:00
TRACK 11 AUDIO
TITLE "Rio Bonito (Beautiful Rio)"
PERFORMER "Laurindo Almeida"
INDEX 00 25:03:42
INDEX 01 25:05:70
TRACK 12 AUDIO
TITLE "Hava Nagila"
PERFORMER "Laurindo Almeida"
INDEX 00 27:53:00
INDEX 01 27:55:28
03:11
480
Нет комментариев. Ваш будет первым!