Поиск

(World Fusion, Brazilian Jazz, Bossa Nova) Laurindo Almeida - A Man and a Woman (Japan Edition) - 1967, FLAC (image+.cue), lossless

(World Fusion, Brazilian Jazz, Bossa Nova) Laurindo Almeida - A Man and a Woman (Japan Edition) - 1967, FLAC (image+.cue), lossless
Треклист:
Laurindo Almeida - A Man and a Woman
Жанр: World Fusion, Brazilian Jazz, Bossa Nova
Страна-производитель диска: Япония
Год издания диска: 2011
Издатель (лейбл): Capitol / EMI
Номер по каталогу: TOCJ-50102
Аудиокодек: FLAC (*.flac)
Тип рипа: image+.cue
Битрейт аудио: lossless
Продолжительность: 32:04
Источник (релизер): диск из моей коллекции
Наличие сканов в содержимом раздачи: да
Треклист:
01. A Man and a Woman (Barouh-Keller-Lai) - 2:24
02. Call Me (Hatch) - 3:02
03. Michelle (Lennon-McCartney) - 2:23
04. 'Cause I Love Her (King-Dumm) - 2:20
05. Bluesette (Gimbel-Thielemans) - 2:38
06. Here's That Rainy Day (Burke-Van Heusen) - 3:24
07. Secret Love (Webster-Fain) - 3:46
08. Distant Shores (Guercio) - 3:47
09. Soft Mood (Almeida) - 2:50
10. Goin' Out of My Head (Randazzo-Weinstein) - 2:47
11. Mas Que Nada (Ben) - 2:13
Состав:
Laurindo Almeida - guitar with Strings & Horns
 
Лог создания рипа
Exact Audio Copy V1.0 beta 1 from 15. November 2010
EAC extraction logfile from 17. March 2012, 16:37
Laurindo Almeida / A Man and a Woman
Used drive : ASUS DRW-24B1LT Adapter: 5 ID: 0
Read mode : Secure
Utilize accurate stream : Yes
Defeat audio cache : Yes
Make use of C2 pointers : No
Read offset correction : 6
Overread into Lead-In and Lead-Out : No
Fill up missing offset samples with silence : Yes
Delete leading and trailing silent blocks : No
Null samples used in CRC calculations : Yes
Used interface : Native Win32 interface for Win NT & 2000
Used output format : User Defined Encoder
Selected bitrate : 768 kBit/s
Quality : High
Add ID3 tag : No
Command line compressor : C:\Program Files\Exact Audio Copy\Flac\flac.exe
Additional command line options : -8 -V -T "ARTIST=%a" -T "TITLE=%t" -T "ALBUM=%g" -T "DATE=%y" -T "TRACKNUMBER=%n" -T "TOTALTRACKS=%x" -T "GENRE=%m" -T "ALBUMARTIST=%v" -T "ALBUM ARTIST=%v" -T "COMMENT=EAC Secure Mode, Test & Copy, AccurateRip, FLAC -8" %s
TOC of the extracted CD
Track | Start | Length | Start sector | End sector
---------------------------------------------------------
1 | 0:00.00 | 2:26.00 | 0 | 10949
2 | 2:26.00 | 3:05.42 | 10950 | 24866
3 | 5:31.42 | 2:24.70 | 24867 | 35736
4 | 7:56.37 | 2:23.29 | 35737 | 46490
5 | 10:19.66 | 2:41.47 | 46491 | 58612
6 | 13:01.38 | 3:27.74 | 58613 | 74211
7 | 16:29.37 | 3:48.46 | 74212 | 91357
8 | 20:18.08 | 3:49.55 | 91358 | 108587
9 | 24:07.63 | 2:53.27 | 108588 | 121589
10 | 27:01.15 | 2:49.66 | 121590 | 134330
11 | 29:51.06 | 2:13.47 | 134331 | 144352
Range status and errors
Selected range
Filename F:\audio\Laurindo Almeida - A Man and a Woman.wav
Peak level 99.8 %
Extraction speed 0.1 X
Range quality 100.0 %
Test CRC 3101BBA6
Copy CRC 3101BBA6
Copy OK
No errors occurred
AccurateRip summary
Track 1 cannot be verified as accurate (confidence 1) [5E657D82], AccurateRip returned [95746D76]
Track 2 cannot be verified as accurate (confidence 1) [E3F86457], AccurateRip returned [3D41FA40]
Track 3 cannot be verified as accurate (confidence 1) [9AF391C0], AccurateRip returned [6926C993]
Track 4 cannot be verified as accurate (confidence 1) [3E55BA81], AccurateRip returned [C64007FF]
Track 5 cannot be verified as accurate (confidence 1) [1E23A036], AccurateRip returned [B21F6291]
Track 6 cannot be verified as accurate (confidence 1) [F202C1ED], AccurateRip returned [27DA7E55]
Track 7 cannot be verified as accurate (confidence 1) [F22BF46A], AccurateRip returned [C3A14267]
Track 8 cannot be verified as accurate (confidence 1) [36C8CF93], AccurateRip returned [F1753C66]
Track 9 cannot be verified as accurate (confidence 1) [0FCD8E05], AccurateRip returned [C28D5019]
Track 10 cannot be verified as accurate (confidence 1) [C5F0E069], AccurateRip returned [E7CA2520]
Track 11 cannot be verified as accurate (confidence 1) [540BF288], AccurateRip returned [6415FB67]
No tracks could be verified as accurate
You may have a different pressing from the one(s) in the database
End of status report
==== Log checksum C4313BF0C9D344D193E7A3B2F5A7EF208A3F84408EF4CE697965C50802854660 ====
 
Содержание индексной карты (.CUE)
REM GENRE Jazz
REM DATE 1967
REM DISCID 9007840B
REM COMMENT "ExactAudioCopy v1.0b1"
PERFORMER "Laurindo Almeida"
TITLE "A Man and a Woman"
FILE "Laurindo Almeida - A Man and a Woman.wav" WAVE
TRACK 01 AUDIO
TITLE "A Man and a Woman"
PERFORMER "Laurindo Almeida"
INDEX 01 00:00:00
TRACK 02 AUDIO
TITLE "Call Me"
PERFORMER "Laurindo Almeida"
INDEX 00 02:24:11
INDEX 01 02:26:00
TRACK 03 AUDIO
TITLE "Michelle"
PERFORMER "Laurindo Almeida"
INDEX 00 05:28:72
INDEX 01 05:31:42
TRACK 04 AUDIO
TITLE "'Cause I Love Her"
PERFORMER "Laurindo Almeida"
INDEX 00 07:54:58
INDEX 01 07:56:37
TRACK 05 AUDIO
TITLE "Bluesette"
PERFORMER "Laurindo Almeida"
INDEX 00 10:16:60
INDEX 01 10:19:66
TRACK 06 AUDIO
TITLE "Here's That Rainy Day"
PERFORMER "Laurindo Almeida"
INDEX 00 12:58:52
INDEX 01 13:01:38
TRACK 07 AUDIO
TITLE "Secret Love"
PERFORMER "Laurindo Almeida"
INDEX 00 16:25:74
INDEX 01 16:29:37
TRACK 08 AUDIO
TITLE "Distant Shores"
PERFORMER "Laurindo Almeida"
INDEX 00 20:15:63
INDEX 01 20:18:08
TRACK 09 AUDIO
TITLE "Soft Mood"
PERFORMER "Laurindo Almeida"
INDEX 00 24:05:47
INDEX 01 24:07:63
TRACK 10 AUDIO
TITLE "Goin' Out of My Head"
PERFORMER "Laurindo Almeida"
INDEX 00 26:58:57
INDEX 01 27:01:15
TRACK 11 AUDIO
TITLE "Mas Que Nada"
PERFORMER "Laurindo Almeida"
INDEX 00 29:48:56
INDEX 01 29:51:06
02:09
407
Нет комментариев. Ваш будет первым!