Поиск

(Vocal, Pop Jazz, Motown) Marvin Gaye - I Heard It Through the Grapevine - 1997, FLAC (tracks+.cue), lossless

Треклист:
Marvin Gaye - I Heard It Through the Grapevine
Жанр: Vocal, Pop Jazz, Motown
Год выпуска диска: 1997
Производитель диска: Motown Record Company (США)
Аудио кодек: FLAC
Тип рипа: tracks+.cue
Битрейт аудио: lossless
Продолжительность: 1:06:02
Трэклист:
01. Stubborn Kind of Fellow {2:49}
02. Pride and Joy {2:07}
03. Can I Get a Witness {2:50}
04. How Sweet It Is [To Be Loved By You] {2:57}
05. Little Darling I Need You {2:35}
06. Chained {2:41}
07. I Heard It Through The Grapevine {3:17}
08. What's Going On {3:51}
09. Let's Get it On {3:58}
10. I Want You {3:58}
11. The World Is Rated X {3:44}
12. Ego Tripping Out {5:01}
13. Trouble Man {3:49}
14. Unforgettable {3:43}
15. What's The Matter With You Baby {2:27}
16. It Takes Two {3:00}
17. If This World Were Mine {2:41}
18. Yesterday {3:28}
19. Got to Give it Up [Part One] {4:05}
20. You are Everything [With Diana Ross] {3:04}
 
Отчёт EAC
Exact Audio Copy V0.99 prebeta 4 from 23. January 2008
EAC extraction logfile from 6. March 2010, 12:24
Marvin Gaye / I Heard It Through the Grapevine
Used drive : HL-DT-STBD-RE GGW-H20L Adapter: 0 ID: 2
Read mode : Secure
Utilize accurate stream : Yes
Defeat audio cache : Yes
Make use of C2 pointers : No
Read offset correction : 667
Overread into Lead-In and Lead-Out : No
Fill up missing offset samples with silence : Yes
Delete leading and trailing silent blocks : No
Null samples used in CRC calculations : Yes
Used interface : Installed external ASPI interface
Gap handling : Appended to previous track
Used output format : User Defined Encoder
Selected bitrate : 1024 kBit/s
Quality : High
Add ID3 tag : No
Command line compressor : C:\Program Files\Exact Audio Copy\Flac\flac.exe
Additional command line options : -8 -V -T "ARTIST=%a" -T "TITLE=%t" -T "ALBUM=%g" -T "DATE=%y" -T "TRACKNUMBER=%n" -T "GENRE=%m" -T "COMMENT=EAC FLAC - 8 - oan" %s
TOC of the extracted CD
Track | Start | Length | Start sector | End sector
---------------------------------------------------------
1 | 0:00.00 | 2:48.52 | 0 | 12651
2 | 2:48.52 | 2:07.15 | 12652 | 22191
3 | 4:55.67 | 2:49.43 | 22192 | 34909
4 | 7:45.35 | 2:57.05 | 34910 | 48189
5 | 10:42.40 | 2:34.40 | 48190 | 59779
6 | 13:17.05 | 2:40.42 | 59780 | 71821
7 | 15:57.47 | 3:17.08 | 71822 | 86604
8 | 19:14.55 | 3:51.02 | 86605 | 103931
9 | 23:05.57 | 3:58.18 | 103932 | 121799
10 | 27:04.00 | 3:57.55 | 121800 | 139629
11 | 31:01.55 | 3:44.10 | 139630 | 156439
12 | 34:45.65 | 5:01.10 | 156440 | 179024
13 | 39:47.00 | 3:48.55 | 179025 | 196179
14 | 43:35.55 | 3:42.70 | 196180 | 212899
15 | 47:18.50 | 2:26.40 | 212900 | 223889
16 | 49:45.15 | 2:59.70 | 223890 | 237384
17 | 52:45.10 | 2:40.60 | 237385 | 249444
18 | 55:25.70 | 3:27.42 | 249445 | 265011
19 | 58:53.37 | 4:05.23 | 265012 | 283409
20 | 62:58.60 | 3:03.67 | 283410 | 297201
Track 1
Filename C:\oan\01 - Stubborn Kind of Fellow.wav
Pre-gap length 0:00:02.00
Peak level 99.9 %
Track quality 99.9 %
Test CRC E11AC82D
Copy CRC E11AC82D
Cannot be verified as accurate (confidence 4) [9CC2FF57], AccurateRip returned [E655680E]
Copy OK
Track 2
Filename C:\oan\02 - Pride and Joy.wav
Pre-gap length 0:00:01.73
Peak level 99.9 %
Track quality 100.0 %
Test CRC 919DDC91
Copy CRC 919DDC91
Cannot be verified as accurate (confidence 4) [F62D0622], AccurateRip returned [3C9545F9]
Copy OK
Track 3
Filename C:\oan\03 - Can I Get a Witness.wav
Pre-gap length 0:00:01.73
Peak level 99.9 %
Track quality 100.0 %
Test CRC 0D2EB43E
Copy CRC 0D2EB43E
Cannot be verified as accurate (confidence 4) [A9B31F0B], AccurateRip returned [3C566E87]
Copy OK
Track 4
Filename C:\oan\04 - How Sweet It Is [To Be Loved By You].wav
Pre-gap length 0:00:01.77
Peak level 99.9 %
Track quality 100.0 %
Test CRC 4864D68D
Copy CRC 4864D68D
Cannot be verified as accurate (confidence 4) [45B20DB5], AccurateRip returned [54AD9F98]
Copy OK
Track 5
Filename C:\oan\05 - Little Darling I Need You.wav
Pre-gap length 0:00:01.73
Peak level 99.9 %
Track quality 100.0 %
Test CRC CDD12C2F
Copy CRC CDD12C2F
Cannot be verified as accurate (confidence 4) [8A601307], AccurateRip returned [82D8A603]
Copy OK
Track 6
Filename C:\oan\06 - Chained.wav
Pre-gap length 0:00:01.73
Peak level 99.9 %
Track quality 100.0 %
Test CRC DDBF021A
Copy CRC DDBF021A
Cannot be verified as accurate (confidence 4) [9CCE76C1], AccurateRip returned [FD260BAC]
Copy OK
Track 7
Filename C:\oan\07 - I Heard It Through The Grapevine.wav
Pre-gap length 0:00:01.73
Peak level 99.9 %
Track quality 100.0 %
Test CRC 5A888BAE
Copy CRC 5A888BAE
Cannot be verified as accurate (confidence 4) [A6A4B8BB], AccurateRip returned [F14F24CC]
Copy OK
Track 8
Filename C:\oan\08 - What's Going On.wav
Pre-gap length 0:00:01.73
Peak level 99.9 %
Track quality 100.0 %
Test CRC B4DFA243
Copy CRC B4DFA243
Cannot be verified as accurate (confidence 4) [4358649B], AccurateRip returned [5BC10840]
Copy OK
Track 9
Filename C:\oan\09 - Let's Get it On.wav
Pre-gap length 0:00:01.73
Peak level 99.9 %
Track quality 100.0 %
Test CRC 7277FF53
Copy CRC 7277FF53
Cannot be verified as accurate (confidence 4) [0EBB28FD], AccurateRip returned [8452FE3D]
Copy OK
Track 10
Filename C:\oan\10 - I Want You.wav
Pre-gap length 0:00:01.73
Peak level 99.7 %
Track quality 99.9 %
Test CRC 679C3682
Copy CRC 679C3682
Cannot be verified as accurate (confidence 4) [66065DF8], AccurateRip returned [FD440403]
Copy OK
Track 11
Filename C:\oan\11 - The World Is Rated X.wav
Pre-gap length 0:00:01.73
Peak level 99.9 %
Track quality 99.9 %
Test CRC CF599FC0
Copy CRC CF599FC0
Cannot be verified as accurate (confidence 4) [77BEC9AF], AccurateRip returned [C9A41081]
Copy OK
Track 12
Filename C:\oan\12 - Ego Tripping Out.wav
Pre-gap length 0:00:01.73
Peak level 99.9 %
Track quality 100.0 %
Test CRC 2FBCE372
Copy CRC 2FBCE372
Cannot be verified as accurate (confidence 4) [D0DBB918], AccurateRip returned [42126F17]
Copy OK
Track 13
Filename C:\oan\13 - Trouble Man.wav
Pre-gap length 0:00:01.73
Peak level 99.9 %
Track quality 100.0 %
Test CRC F45FF13F
Copy CRC F45FF13F
Cannot be verified as accurate (confidence 4) [A6055B9B], AccurateRip returned [7E0DBA72]
Copy OK
Track 14
Filename C:\oan\14 - Unforgettable.wav
Pre-gap length 0:00:01.73
Peak level 99.9 %
Track quality 100.0 %
Test CRC C2E0A5D2
Copy CRC C2E0A5D2
Cannot be verified as accurate (confidence 4) [2139D0A5], AccurateRip returned [D58A6576]
Copy OK
Track 15
Filename C:\oan\15 - What's The Matter With You Baby.wav
Pre-gap length 0:00:01.73
Peak level 99.9 %
Track quality 100.0 %
Test CRC BDDEBC44
Copy CRC BDDEBC44
Cannot be verified as accurate (confidence 4) [B5FD9BDB], AccurateRip returned [8822F309]
Copy OK
Track 16
Filename C:\oan\16 - It Takes Two.wav
Pre-gap length 0:00:01.73
Peak level 99.9 %
Track quality 100.0 %
Test CRC 106E0105
Copy CRC 106E0105
Cannot be verified as accurate (confidence 4) [0CC3B41B], AccurateRip returned [5B7E9C30]
Copy OK
Track 17
Filename C:\oan\17 - If This World Were Mine.wav
Pre-gap length 0:00:01.73
Peak level 99.9 %
Track quality 100.0 %
Test CRC 6D296044
Copy CRC 6D296044
Cannot be verified as accurate (confidence 4) [438CDD1D], AccurateRip returned [2279DD5C]
Copy OK
Track 18
Filename C:\oan\18 - Yesterday.wav
Pre-gap length 0:00:01.73
Peak level 98.7 %
Track quality 99.9 %
Test CRC 4877544C
Copy CRC 4877544C
Cannot be verified as accurate (confidence 4) [FD3A4512], AccurateRip returned [1F62038B]
Copy OK
Track 19
Filename C:\oan\19 - Got to Give it Up [Part One].wav
Pre-gap length 0:00:01.73
Peak level 99.9 %
Track quality 100.0 %
Test CRC DD4AA09B
Copy CRC DD4AA09B
Cannot be verified as accurate (confidence 4) [BD6C8654], AccurateRip returned [697778A4]
Copy OK
Track 20
Filename C:\oan\20 - You are Everything [With Diana Ross].wav
Pre-gap length 0:00:01.73
Peak level 99.9 %
Track quality 100.0 %
Test CRC E1F9F0C3
Copy CRC E1F9F0C3
Cannot be verified as accurate (confidence 4) [BF57ECC0], AccurateRip returned [5381D4EC]
Copy OK
No tracks could be verified as accurate
You may have a different pressing from the one(s) in the database
No errors occurred
End of status report
 
Лог Audiocheker
AUDIOCHECKER v2.0 beta (build 457) - by Dester - opdester@freemail.hu
~~~~~~~~~~~~~~~~~~~~~~~~~~~~~~~~~~
Started at: воскресенье, 14. 03. 2010. - 19:25.35
20 files found
01 -===- C:\- раздаю -\Marvin Gaye - Heard It Through the Grapevine - 1997\01 - Stubborn Kind of Fellow.flac
Extracted successfully
Conclusion: this track is CDDA with probability 99%
Tempfile successfully deleted.
02 -===- C:\- раздаю -\Marvin Gaye - Heard It Through the Grapevine - 1997\02 - Pride and Joy.flac
Extracted successfully
Conclusion: this track is CDDA with probability 100%
Tempfile successfully deleted.
03 -===- C:\- раздаю -\Marvin Gaye - Heard It Through the Grapevine - 1997\03 - Can I Get a Witness.flac
Extracted successfully
Conclusion: this track is CDDA with probability 100%
Tempfile successfully deleted.
04 -===- C:\- раздаю -\Marvin Gaye - Heard It Through the Grapevine - 1997\04 - How Sweet It Is [To Be Loved By You].flac
Extracted successfully
Conclusion: this track is CDDA with probability 100%
Tempfile successfully deleted.
05 -===- C:\- раздаю -\Marvin Gaye - Heard It Through the Grapevine - 1997\05 - Little Darling I Need You.flac
Extracted successfully
Conclusion: this track is CDDA with probability 100%
Tempfile successfully deleted.
06 -===- C:\- раздаю -\Marvin Gaye - Heard It Through the Grapevine - 1997\06 - Chained.flac
Extracted successfully
Conclusion: this track is CDDA with probability 100%
Tempfile successfully deleted.
07 -===- C:\- раздаю -\Marvin Gaye - Heard It Through the Grapevine - 1997\07 - I Heard It Through The Grapevine.flac
Extracted successfully
Conclusion: this track is CDDA with probability 100%
Tempfile successfully deleted.
08 -===- C:\- раздаю -\Marvin Gaye - Heard It Through the Grapevine - 1997\08 - What's Going On.flac
Extracted successfully
Conclusion: this track is CDDA with probability 100%
Tempfile successfully deleted.
09 -===- C:\- раздаю -\Marvin Gaye - Heard It Through the Grapevine - 1997\09 - Let's Get it On.flac
Extracted successfully
Conclusion: this track is CDDA with probability 100%
Tempfile successfully deleted.
10 -===- C:\- раздаю -\Marvin Gaye - Heard It Through the Grapevine - 1997\10 - I Want You.flac
Extracted successfully
Conclusion: this track is CDDA with probability 100%
Tempfile successfully deleted.
11 -===- C:\- раздаю -\Marvin Gaye - Heard It Through the Grapevine - 1997\11 - The World Is Rated X.flac
Extracted successfully
Conclusion: this track is CDDA with probability 99%
Tempfile successfully deleted.
12 -===- C:\- раздаю -\Marvin Gaye - Heard It Through the Grapevine - 1997\12 - Ego Tripping Out.flac
Extracted successfully
Conclusion: this track is CDDA with probability 100%
Tempfile successfully deleted.
13 -===- C:\- раздаю -\Marvin Gaye - Heard It Through the Grapevine - 1997\13 - Trouble Man.flac
Extracted successfully
Conclusion: this track is CDDA with probability 100%
Tempfile successfully deleted.
14 -===- C:\- раздаю -\Marvin Gaye - Heard It Through the Grapevine - 1997\14 - Unforgettable.flac
Extracted successfully
Conclusion: this track is CDDA with probability 100%
Tempfile successfully deleted.
15 -===- C:\- раздаю -\Marvin Gaye - Heard It Through the Grapevine - 1997\15 - What's The Matter With You Baby.flac
Extracted successfully
Conclusion: this track is CDDA with probability 99%
Tempfile successfully deleted.
16 -===- C:\- раздаю -\Marvin Gaye - Heard It Through the Grapevine - 1997\16 - It Takes Two.flac
Extracted successfully
Conclusion: this track is CDDA with probability 100%
Tempfile successfully deleted.
17 -===- C:\- раздаю -\Marvin Gaye - Heard It Through the Grapevine - 1997\17 - If This World Were Mine.flac
Extracted successfully
Conclusion: this track is CDDA with probability 100%
Tempfile successfully deleted.
18 -===- C:\- раздаю -\Marvin Gaye - Heard It Through the Grapevine - 1997\18 - Yesterday.flac
Extracted successfully
Conclusion: this track is CDDA with probability 54%
Tempfile successfully deleted.
19 -===- C:\- раздаю -\Marvin Gaye - Heard It Through the Grapevine - 1997\19 - Got to Give it Up [Part One].flac
Extracted successfully
Conclusion: this track is CDDA with probability 100%
Tempfile successfully deleted.
20 -===- C:\- раздаю -\Marvin Gaye - Heard It Through the Grapevine - 1997\20 - You are Everything [With Diana Ross].flac
Extracted successfully
Conclusion: this track is CDDA with probability 76%
Tempfile successfully deleted.
This album (Marvin Gaye - Heard It Through the Grapevine - 1997) seems to be CDDA with probability 96,35%
Finished at: воскресенье, 14. 03. 2010. - 19:37.52 (operation time: 0:12.17)
 
CUE Sheet
REM GENRE Motown/Soul
REM DATE 1997
REM DISCID 4E0F7A14
REM COMMENT "ExactAudioCopy v0.99pb4"
PERFORMER "Marvin Gaye"
TITLE "I Heard It Through the Grapevine"
FILE "01 - Stubborn Kind of Fellow.wav" WAVE
TRACK 01 AUDIO
TITLE "Stubborn Kind of Fellow"
PERFORMER "Marvin Gaye"
INDEX 01 00:00:00
TRACK 02 AUDIO
TITLE "Pride and Joy"
PERFORMER "Marvin Gaye"
INDEX 00 02:46:72
FILE "02 - Pride and Joy.wav" WAVE
INDEX 01 00:00:00
TRACK 03 AUDIO
TITLE "Can I Get a Witness"
PERFORMER "Marvin Gaye"
INDEX 00 02:05:35
FILE "03 - Can I Get a Witness.wav" WAVE
INDEX 01 00:00:00
TRACK 04 AUDIO
TITLE "How Sweet It Is [To Be Loved By You]"
PERFORMER "Marvin Gaye"
INDEX 00 02:47:60
FILE "04 - How Sweet It Is [To Be Loved By You].wav" WAVE
INDEX 01 00:00:00
TRACK 05 AUDIO
TITLE "Little Darling I Need You"
PERFORMER "Marvin Gaye"
INDEX 00 02:55:25
FILE "05 - Little Darling I Need You.wav" WAVE
INDEX 01 00:00:00
TRACK 06 AUDIO
TITLE "Chained"
PERFORMER "Marvin Gaye"
INDEX 00 02:32:60
FILE "06 - Chained.wav" WAVE
INDEX 01 00:00:00
TRACK 07 AUDIO
TITLE "I Heard It Through The Grapevine"
PERFORMER "Marvin Gaye"
INDEX 00 02:38:62
FILE "07 - I Heard It Through The Grapevine.wav" WAVE
INDEX 01 00:00:00
TRACK 08 AUDIO
TITLE "What's Going On"
PERFORMER "Marvin Gaye"
INDEX 00 03:15:28
FILE "08 - What's Going On.wav" WAVE
INDEX 01 00:00:00
TRACK 09 AUDIO
TITLE "Let's Get it On"
PERFORMER "Marvin Gaye"
INDEX 00 03:49:22
FILE "09 - Let's Get it On.wav" WAVE
INDEX 01 00:00:00
TRACK 10 AUDIO
TITLE "I Want You"
PERFORMER "Marvin Gaye"
INDEX 00 03:56:38
FILE "10 - I Want You.wav" WAVE
INDEX 01 00:00:00
TRACK 11 AUDIO
TITLE "The World Is Rated X"
PERFORMER "Marvin Gaye"
INDEX 00 03:56:00
FILE "11 - The World Is Rated X.wav" WAVE
INDEX 01 00:00:00
TRACK 12 AUDIO
TITLE "Ego Tripping Out"
PERFORMER "Marvin Gaye"
INDEX 00 03:42:30
FILE "12 - Ego Tripping Out.wav" WAVE
INDEX 01 00:00:00
TRACK 13 AUDIO
TITLE "Trouble Man"
PERFORMER "Marvin Gaye"
INDEX 00 04:59:30
FILE "13 - Trouble Man.wav" WAVE
INDEX 01 00:00:00
TRACK 14 AUDIO
TITLE "Unforgettable"
PERFORMER "Marvin Gaye"
INDEX 00 03:47:00
FILE "14 - Unforgettable.wav" WAVE
INDEX 01 00:00:00
TRACK 15 AUDIO
TITLE "What's The Matter With You Baby"
PERFORMER "Marvin Gaye"
INDEX 00 03:41:15
FILE "15 - What's The Matter With You Baby.wav" WAVE
INDEX 01 00:00:00
TRACK 16 AUDIO
TITLE "It Takes Two"
PERFORMER "Marvin Gaye"
INDEX 00 02:24:60
FILE "16 - It Takes Two.wav" WAVE
INDEX 01 00:00:00
TRACK 17 AUDIO
TITLE "If This World Were Mine"
PERFORMER "Marvin Gaye"
INDEX 00 02:58:15
FILE "17 - If This World Were Mine.wav" WAVE
INDEX 01 00:00:00
TRACK 18 AUDIO
TITLE "Yesterday"
PERFORMER "Marvin Gaye"
INDEX 00 02:39:05
FILE "18 - Yesterday.wav" WAVE
INDEX 01 00:00:00
TRACK 19 AUDIO
TITLE "Got to Give it Up [Part One]"
PERFORMER "Marvin Gaye"
INDEX 00 03:25:62
FILE "19 - Got to Give it Up [Part One].wav" WAVE
INDEX 01 00:00:00
TRACK 20 AUDIO
TITLE "You are Everything [With Diana Ross]"
PERFORMER "Marvin Gaye"
INDEX 00 04:03:43
FILE "20 - You are Everything [With Diana Ross].wav" WAVE
INDEX 01 00:00:00
Доп. информация: Источник - The Pirate Bay (релизёр oneanight) | сканы буклета и диска (600 DPI) в комплекте
Приватный:
Нет (DHT включён)
Размер:
420.47 Мб (440,898,074 байт) » файлов: 30
Участники:
0 раздают, 0 качают (0 участников всего)
Внешние участники:
3 раздают, 1 качают (4 участников всего) [ Обновить ]
Никого нет на раздаче - пишите личное сообщение M0p94ok
No seeders - write personal message to M0p94ok
03:03
19
Нет комментариев. Ваш будет первым!