Поиск

(Electronic, Funk, Soul) Fred Wesley & The Horny Horns - Say Blow By Blow Backwards (PCD-2766) - 1993, FLAC (tracks+.cue), lossless

(Electronic, Funk, Soul) Fred Wesley & The Horny Horns - Say Blow By Blow Backwards (PCD-2766) - 1993, FLAC (tracks+.cue), lossless
Треклист:
Fred Wesley & The Horny Horns - Say Blow By Blow Backwards
Жанр: Electronic, Funk, Soul
Год выпуска диска: 1993
Производитель диска: P-Vine Records
Аудио кодек: FLAC
Тип рипа: tracks+.cue
Битрейт аудио: lossless
Продолжительность: 56 min 13 sec
1.We Came To Funk Ya (7:02)
2.Half A Man (9:40)
3.Say Blow By Blow Backwards (5:14)
4.Mr. Melody Man (7:15)
5.Just Like You (6:55)
6.Circular Motion (5:52)
7.Half A Man (Remix) (5:27)
8.Say Blow By Blow Backwards (Remix) (5:30)
9.Interview (3:18)
Собственноручный рип с оригинального диска от funky_cat!
 
Log EAC
Exact Audio Copy V0.99 prebeta 5 from 4. May 2009
EAC extraction logfile from 15. March 2010, 22:36
Fred Wesley and The Horny Horns / Say Blow By Blow Backwards
Used drive : ASUS DRW-1608P2 Adapter: 0 ID: 0
Read mode : Secure
Utilize accurate stream : Yes
Defeat audio cache : Yes
Make use of C2 pointers : No
Read offset correction : 48
Overread into Lead-In and Lead-Out : No
Fill up missing offset samples with silence : Yes
Delete leading and trailing silent blocks : No
Null samples used in CRC calculations : Yes
Used interface : Native Win32 interface for Win NT & 2000
Gap handling : Appended to previous track
Used output format : User Defined Encoder
Selected bitrate : 1024 kBit/s
Quality : High
Add ID3 tag : No
Command line compressor : C:\Program Files\FLAC\flac.exe
Additional command line options : -5 -V -T "ARTIST=%a" -T "TITLE=%t" -T "ALBUM=%g" -T "DATE=%y" -T "TRACKNUMBER=%n" -T "GENRE=%m" -T "COMMENT=Ripped by andygrakoff aka yetiisyou" %s
TOC of the extracted CD
Track | Start | Length | Start sector | End sector
---------------------------------------------------------
1 | 0:00.00 | 7:02.10 | 0 | 31659
2 | 7:02.10 | 9:40.42 | 31660 | 75201
3 | 16:42.52 | 5:14.03 | 75202 | 98754
4 | 21:56.55 | 7:15.14 | 98755 | 131393
5 | 29:11.69 | 6:55.58 | 131394 | 162576
6 | 36:07.52 | 5:52.24 | 162577 | 189000
7 | 42:00.01 | 5:27.74 | 189001 | 213599
8 | 47:28.00 | 5:30.62 | 213600 | 238411
9 | 52:58.62 | 3:18.67 | 238412 | 253328
Track 1
Filename E:\!Rips\Fred Wesley & The Horny Horns - Say Blow By Blow Backwards (PCD-2766)\01 – We Came To Funk Ya.wav
Pre-gap length 0:00:02.00
Peak level 98.0 %
Track quality 100.0 %
Test CRC A5A4AEDC
Copy CRC A5A4AEDC
Track not present in AccurateRip database
Copy OK
Track 2
Filename E:\!Rips\Fred Wesley & The Horny Horns - Say Blow By Blow Backwards (PCD-2766)\02 – Half A Man.wav
Peak level 98.0 %
Track quality 100.0 %
Test CRC 6B8ED921
Copy CRC 6B8ED921
Track not present in AccurateRip database
Copy OK
Track 3
Filename E:\!Rips\Fred Wesley & The Horny Horns - Say Blow By Blow Backwards (PCD-2766)\03 – Say Blow By Blow Backwards.wav
Peak level 98.0 %
Track quality 100.0 %
Test CRC 4AD153F0
Copy CRC 4AD153F0
Track not present in AccurateRip database
Copy OK
Track 4
Filename E:\!Rips\Fred Wesley & The Horny Horns - Say Blow By Blow Backwards (PCD-2766)\04 – Mr. Melody Man.wav
Peak level 98.0 %
Track quality 100.0 %
Test CRC F8A96BB1
Copy CRC F8A96BB1
Track not present in AccurateRip database
Copy OK
Track 5
Filename E:\!Rips\Fred Wesley & The Horny Horns - Say Blow By Blow Backwards (PCD-2766)\05 – Just Like You.wav
Peak level 98.0 %
Track quality 100.0 %
Test CRC 55B2E427
Copy CRC 55B2E427
Track not present in AccurateRip database
Copy OK
Track 6
Filename E:\!Rips\Fred Wesley & The Horny Horns - Say Blow By Blow Backwards (PCD-2766)\06 – Circular Motion.wav
Peak level 98.0 %
Track quality 99.9 %
Test CRC 59097C5C
Copy CRC 59097C5C
Track not present in AccurateRip database
Copy OK
Track 7
Filename E:\!Rips\Fred Wesley & The Horny Horns - Say Blow By Blow Backwards (PCD-2766)\07 – Half A Man (Remix).wav
Peak level 98.0 %
Track quality 100.0 %
Test CRC AC7602E2
Copy CRC AC7602E2
Track not present in AccurateRip database
Copy OK
Track 8
Filename E:\!Rips\Fred Wesley & The Horny Horns - Say Blow By Blow Backwards (PCD-2766)\08 – Say Blow By Blow Backwards (Remix).wav
Peak level 98.0 %
Track quality 99.9 %
Test CRC 5E0D78D9
Copy CRC 5E0D78D9
Track not present in AccurateRip database
Copy OK
Track 9
Filename E:\!Rips\Fred Wesley & The Horny Horns - Say Blow By Blow Backwards (PCD-2766)\09 – Interview.wav
Peak level 98.0 %
Track quality 99.8 %
Test CRC D821AFB5
Copy CRC D821AFB5
Track not present in AccurateRip database
Copy OK
None of the tracks are present in the AccurateRip database
No errors occurred
End of status report
End of status report
 
CUE
REM GENRE Funk
REM DATE 1979
REM DISCID 660D3109
REM COMMENT "ExactAudioCopy v0.99pb5"
PERFORMER "Fred Wesley and The Horny Horns"
TITLE "Say Blow By Blow Backwards"
FILE "01 – We Came To Funk Ya.wav" WAVE
TRACK 01 AUDIO
TITLE "We Came To Funk Ya"
PERFORMER "Fred Wesley and The Horny Horns"
INDEX 01 00:00:00
FILE "02 – Half A Man.wav" WAVE
TRACK 02 AUDIO
TITLE "Half A Man"
PERFORMER "Fred Wesley and The Horny Horns"
INDEX 01 00:00:00
FILE "03 – Say Blow By Blow Backwards.wav" WAVE
TRACK 03 AUDIO
TITLE "Say Blow By Blow Backwards"
PERFORMER "Fred Wesley and The Horny Horns"
INDEX 01 00:00:00
FILE "04 – Mr. Melody Man.wav" WAVE
TRACK 04 AUDIO
TITLE "Mr. Melody Man"
PERFORMER "Fred Wesley and The Horny Horns"
INDEX 01 00:00:00
FILE "05 – Just Like You.wav" WAVE
TRACK 05 AUDIO
TITLE "Just Like You"
PERFORMER "Fred Wesley and The Horny Horns"
INDEX 01 00:00:00
FILE "06 – Circular Motion.wav" WAVE
TRACK 06 AUDIO
TITLE "Circular Motion"
PERFORMER "Fred Wesley and The Horny Horns"
INDEX 01 00:00:00
FILE "07 – Half A Man (Remix).wav" WAVE
TRACK 07 AUDIO
TITLE "Half A Man (Remix)"
PERFORMER "Fred Wesley and The Horny Horns"
INDEX 01 00:00:00
FILE "08 – Say Blow By Blow Backwards (Remix).wav" WAVE
TRACK 08 AUDIO
TITLE "Say Blow By Blow Backwards (Remix)"
PERFORMER "Fred Wesley and The Horny Horns"
INDEX 01 00:00:00
FILE "09 – Interview.wav" WAVE
TRACK 09 AUDIO
TITLE "Interview"
PERFORMER "Fred Wesley and The Horny Horns"
INDEX 01 00:00:00
Приватный:
Нет (DHT включён)
Размер:
340.87 Мб (357,427,755 байт) » файлов: 14
Участники:
0 раздают, 0 качают (0 участников всего)
Внешние участники:
5 раздают, 1 качают (6 участников всего) [ Обновить ]
Никого нет на раздаче - пишите личное сообщение M0p94ok
No seeders - write personal message to M0p94ok
03:02
21
Нет комментариев. Ваш будет первым!