Поиск

(Funk) Foley - 7 Years Ago Directions In Smart-Alec Music (374637001-2) - 1993, FLAC (tracks+.cue), lossless

(Funk) Foley - 7 Years Ago Directions In Smart-Alec Music (374637001-2) - 1993, FLAC (tracks+.cue), lossless
Треклист:
Foley - 7 Years Ago ... Directions In Smart-Alec Music
Жанр: Funk
Год выпуска диска: 1993
Производитель диска: US \ MoJazz
Аудио кодек: FLAC
Тип рипа: tracks+.cue
Битрейт аудио: lossless
Продолжительность: 00:62:07
1. Foley - Prefacer (2:32)
2. Foley - Cum' Round (Parts I & II) (5:22)
3. Foley - Ain't No Class (N Da Middle) (3:06)
4. Foley - R U Gonna B (5:19)
5. Foley - Count Da Shit Off (Interlude) (0:27)
6. Foley - Better Not Die (N Amerika Being Black) (6:17)
7. Foley - ..If It's Positive (5:15)
8. Foley - September (1:34)
9. Foley - Luv Mi Not (Interlude) (0:39)
10. Foley - Love Is.....Strange (5:47)
11. Foley - He Said, She Said (0:23)
12. Foley - Tell Miss Thang (5:57)
13. Foley - Little Davis (3:58)
14. Foley - Who Did What? (0:13)
15. Foley - Black Dog (0:57)
16. Foley - ....We Did what!!!! (0:07)
17. Foley - Date Rape (Remix) 40 Solos & A Mule (2:52)
18. Foley - The Godfather (Interlude) (1:40)
19. Foley - Dreams On Da Floor (3:57)
20. Foley - Closing (1:42)
21. Foley - Set N It Straight (0:08)
22. Foley - The Senate (3:55)
Собственноручный рип с оригинального диска от funky_cat!
 
Log EAC
Exact Audio Copy V0.99 prebeta 5 from 4. May 2009
EAC extraction logfile from 13. March 2010, 13:07
Foley / 7 Years Ago...Directions In Smart-Alec Music
Used drive : Optiarc DVD RW AD-7170A Adapter: 0 ID: 1
Read mode : Secure
Utilize accurate stream : Yes
Defeat audio cache : Yes
Make use of C2 pointers : No
Read offset correction : 48
Overread into Lead-In and Lead-Out : No
Fill up missing offset samples with silence : Yes
Delete leading and trailing silent blocks : No
Null samples used in CRC calculations : Yes
Used interface : Native Win32 interface for Win NT & 2000
Gap handling : Appended to previous track
Used output format : User Defined Encoder
Selected bitrate : 1024 kBit/s
Quality : High
Add ID3 tag : No
Command line compressor : C:\Program Files\FLAC\flac.exe
Additional command line options : -5 -V -T "ARTIST=%a" -T "TITLE=%t" -T "ALBUM=%g" -T "DATE=%y" -T "TRACKNUMBER=%n" -T "GENRE=%m" -T "COMMENT=Ripped by andygrakoff aka yetiisyou" %s
TOC of the extracted CD
Track | Start | Length | Start sector | End sector
---------------------------------------------------------
1 | 0:00.32 | 2:32.60 | 32 | 11491
2 | 2:33.17 | 5:22.58 | 11492 | 35699
3 | 7:56.00 | 3:06.12 | 35700 | 49661
4 | 11:02.12 | 5:19.00 | 49662 | 73586
5 | 16:21.12 | 0:27.35 | 73587 | 75646
6 | 16:48.47 | 6:17.20 | 75647 | 103941
7 | 23:05.67 | 5:15.30 | 103942 | 127596
8 | 28:21.22 | 1:34.40 | 127597 | 134686
9 | 29:55.62 | 0:39.18 | 134687 | 137629
10 | 30:35.05 | 5:47.27 | 137630 | 163681
11 | 36:22.32 | 0:23.65 | 163682 | 165471
12 | 36:46.22 | 5:57.58 | 165472 | 192304
13 | 42:44.05 | 3:58.47 | 192305 | 210201
14 | 46:42.52 | 0:13.20 | 210202 | 211196
15 | 46:55.72 | 0:57.70 | 211197 | 215541
16 | 47:53.67 | 0:07.73 | 215542 | 216139
17 | 48:01.65 | 2:52.70 | 216140 | 229109
18 | 50:54.60 | 1:40.55 | 229110 | 236664
19 | 52:35.40 | 3:57.20 | 236665 | 254459
20 | 56:32.60 | 1:42.02 | 254460 | 262111
21 | 58:14.62 | 0:08.63 | 262112 | 262774
22 | 58:23.50 | 3:55.60 | 262775 | 280459
Track 1
Filename E:\!Rips\FUNK @ SOUL\Foley - 7 Years Ago ... Directions In Smart-Alec Music (374637001-2)\01 – Prefacer.wav
Pre-gap length 0:00:02.42
Peak level 83.9 %
Track quality 100.0 %
Test CRC BBA8D483
Copy CRC BBA8D483
Track not present in AccurateRip database
Copy OK
Track 2
Filename E:\!Rips\FUNK @ SOUL\Foley - 7 Years Ago ... Directions In Smart-Alec Music (374637001-2)\02 – Cum' Round (Parts I & II).wav
Peak level 99.4 %
Track quality 99.9 %
Test CRC 85C0EF00
Copy CRC 85C0EF00
Track not present in AccurateRip database
Copy OK
Track 3
Filename E:\!Rips\FUNK @ SOUL\Foley - 7 Years Ago ... Directions In Smart-Alec Music (374637001-2)\03 – Ain't No Class (N Da Middle).wav
Peak level 95.0 %
Track quality 100.0 %
Test CRC C09E5FEA
Copy CRC C09E5FEA
Track not present in AccurateRip database
Copy OK
Track 4
Filename E:\!Rips\FUNK @ SOUL\Foley - 7 Years Ago ... Directions In Smart-Alec Music (374637001-2)\04 – R U Gonna B.wav
Peak level 90.1 %
Track quality 100.0 %
Test CRC 60A894E4
Copy CRC 60A894E4
Track not present in AccurateRip database
Copy OK
Track 5
Filename E:\!Rips\FUNK @ SOUL\Foley - 7 Years Ago ... Directions In Smart-Alec Music (374637001-2)\05 – Count Da Shit Off (Interlude).wav
Peak level 81.0 %
Track quality 100.0 %
Test CRC 02B6B592
Copy CRC 02B6B592
Track not present in AccurateRip database
Copy OK
Track 6
Filename E:\!Rips\FUNK @ SOUL\Foley - 7 Years Ago ... Directions In Smart-Alec Music (374637001-2)\06 – Better Not Die (N Amerika Being Black).wav
Peak level 83.1 %
Track quality 100.0 %
Test CRC C5A231B4
Copy CRC C5A231B4
Track not present in AccurateRip database
Copy OK
Track 7
Filename E:\!Rips\FUNK @ SOUL\Foley - 7 Years Ago ... Directions In Smart-Alec Music (374637001-2)\07 – ..If It's Positive.wav
Peak level 100.0 %
Track quality 100.0 %
Test CRC 1AB42629
Copy CRC 1AB42629
Track not present in AccurateRip database
Copy OK
Track 8
Filename E:\!Rips\FUNK @ SOUL\Foley - 7 Years Ago ... Directions In Smart-Alec Music (374637001-2)\08 – September.wav
Peak level 90.6 %
Track quality 100.0 %
Test CRC 6AFB7BA8
Copy CRC 6AFB7BA8
Track not present in AccurateRip database
Copy OK
Track 9
Filename E:\!Rips\FUNK @ SOUL\Foley - 7 Years Ago ... Directions In Smart-Alec Music (374637001-2)\09 – Luv Mi Not (Interlude).wav
Peak level 68.3 %
Track quality 100.0 %
Test CRC 9E7AB16F
Copy CRC 9E7AB16F
Track not present in AccurateRip database
Copy OK
Track 10
Filename E:\!Rips\FUNK @ SOUL\Foley - 7 Years Ago ... Directions In Smart-Alec Music (374637001-2)\10 – Love Is.....Strange.wav
Peak level 87.7 %
Track quality 99.9 %
Test CRC AF1E0A0F
Copy CRC AF1E0A0F
Track not present in AccurateRip database
Copy OK
Track 11
Filename E:\!Rips\FUNK @ SOUL\Foley - 7 Years Ago ... Directions In Smart-Alec Music (374637001-2)\11 – He Said, She Said.wav
Peak level 99.8 %
Track quality 100.0 %
Test CRC 38353D3C
Copy CRC 38353D3C
Track not present in AccurateRip database
Copy OK
Track 12
Filename E:\!Rips\FUNK @ SOUL\Foley - 7 Years Ago ... Directions In Smart-Alec Music (374637001-2)\12 – Tell Miss Thang.wav
Peak level 100.0 %
Track quality 100.0 %
Test CRC CA3F175B
Copy CRC CA3F175B
Track not present in AccurateRip database
Copy OK
Track 13
Filename E:\!Rips\FUNK @ SOUL\Foley - 7 Years Ago ... Directions In Smart-Alec Music (374637001-2)\13 – Little Davis.wav
Peak level 100.0 %
Track quality 100.0 %
Test CRC 19E7D94C
Copy CRC 19E7D94C
Track not present in AccurateRip database
Copy OK
Track 14
Filename E:\!Rips\FUNK @ SOUL\Foley - 7 Years Ago ... Directions In Smart-Alec Music (374637001-2)\14 – Who Did What .wav
Peak level 17.8 %
Track quality 99.1 %
Test CRC C298932F
Copy CRC C298932F
Track not present in AccurateRip database
Copy OK
Track 15
Filename E:\!Rips\FUNK @ SOUL\Foley - 7 Years Ago ... Directions In Smart-Alec Music (374637001-2)\15 – Black Dog.wav
Peak level 95.6 %
Track quality 100.0 %
Test CRC 121B3EC4
Copy CRC 121B3EC4
Track not present in AccurateRip database
Copy OK
Track 16
Filename E:\!Rips\FUNK @ SOUL\Foley - 7 Years Ago ... Directions In Smart-Alec Music (374637001-2)\16 – ....We Did what!!!!.wav
Peak level 57.5 %
Track quality 98.6 %
Test CRC C674920F
Copy CRC C674920F
Track not present in AccurateRip database
Copy OK
Track 17
Filename E:\!Rips\FUNK @ SOUL\Foley - 7 Years Ago ... Directions In Smart-Alec Music (374637001-2)\17 – Date Rape (Remix) 40 Solos & A Mule.wav
Peak level 81.3 %
Track quality 100.0 %
Test CRC 4859CF96
Copy CRC 4859CF96
Track not present in AccurateRip database
Copy OK
Track 18
Filename E:\!Rips\FUNK @ SOUL\Foley - 7 Years Ago ... Directions In Smart-Alec Music (374637001-2)\18 – The Godfather (Interlude).wav
Peak level 88.0 %
Track quality 100.0 %
Test CRC 9AEBC2C1
Copy CRC 9AEBC2C1
Track not present in AccurateRip database
Copy OK
Track 19
Filename E:\!Rips\FUNK @ SOUL\Foley - 7 Years Ago ... Directions In Smart-Alec Music (374637001-2)\19 – Dreams On Da Floor.wav
Peak level 90.9 %
Track quality 100.0 %
Test CRC 372C77F5
Copy CRC 372C77F5
Track not present in AccurateRip database
Copy OK
Track 20
Filename E:\!Rips\FUNK @ SOUL\Foley - 7 Years Ago ... Directions In Smart-Alec Music (374637001-2)\20 – Closing.wav
Peak level 95.5 %
Track quality 100.0 %
Test CRC 3FCAE931
Copy CRC 3FCAE931
Track not present in AccurateRip database
Copy OK
Track 21
Filename E:\!Rips\FUNK @ SOUL\Foley - 7 Years Ago ... Directions In Smart-Alec Music (374637001-2)\21 – Set N It Straight.wav
Peak level 30.2 %
Track quality 100.0 %
Test CRC B7732BCF
Copy CRC B7732BCF
Track not present in AccurateRip database
Copy OK
Track 22
Filename E:\!Rips\FUNK @ SOUL\Foley - 7 Years Ago ... Directions In Smart-Alec Music (374637001-2)\22 – The Senate.wav
Peak level 100.0 %
Track quality 99.9 %
Test CRC 45C66019
Copy CRC 45C66019
Track not present in AccurateRip database
Copy OK
None of the tracks are present in the AccurateRip database
No errors occurred
End of status report
 
CUE
REM GENRE Fusion
REM DATE 1993
REM DISCID 5D0E9B16
REM COMMENT "ExactAudioCopy v0.99pb5"
PERFORMER "Foley"
TITLE "7 Years Ago...Directions In Smart-Alec Music"
FILE "01 – Prefacer.wav" WAVE
TRACK 01 AUDIO
TITLE "Prefacer "
PERFORMER "Foley"
PREGAP 00:00:32
INDEX 01 00:00:00
FILE "02 – Cum' Round (Parts I & II).wav" WAVE
TRACK 02 AUDIO
TITLE "Cum' Round (Parts I & II)"
PERFORMER "Foley"
INDEX 01 00:00:00
FILE "03 – Ain't No Class (N Da Middle).wav" WAVE
TRACK 03 AUDIO
TITLE "Ain't No Class (N Da Middle)"
PERFORMER "Foley"
INDEX 01 00:00:00
FILE "04 – R U Gonna B.wav" WAVE
TRACK 04 AUDIO
TITLE "R U Gonna B"
PERFORMER "Foley"
INDEX 01 00:00:00
FILE "05 – Count Da Shit Off (Interlude).wav" WAVE
TRACK 05 AUDIO
TITLE "Count Da Shit Off (Interlude)"
PERFORMER "Foley"
INDEX 01 00:00:00
FILE "06 – Better Not Die (N Amerika Being Black).wav" WAVE
TRACK 06 AUDIO
TITLE "Better Not Die (N Amerika Being Black)"
PERFORMER "Foley"
INDEX 01 00:00:00
FILE "07 – ..If It's Positive.wav" WAVE
TRACK 07 AUDIO
TITLE "..If It's Positive"
PERFORMER "Foley"
INDEX 01 00:00:00
FILE "08 – September.wav" WAVE
TRACK 08 AUDIO
TITLE "September"
PERFORMER "Foley"
INDEX 01 00:00:00
FILE "09 – Luv Mi Not (Interlude).wav" WAVE
TRACK 09 AUDIO
TITLE "Luv Mi Not (Interlude)"
PERFORMER "Foley"
INDEX 01 00:00:00
FILE "10 – Love Is.....Strange.wav" WAVE
TRACK 10 AUDIO
TITLE "Love Is.....Strange"
PERFORMER "Foley"
INDEX 01 00:00:00
FILE "11 – He Said, She Said.wav" WAVE
TRACK 11 AUDIO
TITLE "He Said, She Said"
PERFORMER "Foley"
INDEX 01 00:00:00
FILE "12 – Tell Miss Thang.wav" WAVE
TRACK 12 AUDIO
TITLE "Tell Miss Thang"
PERFORMER "Foley"
INDEX 01 00:00:00
FILE "13 – Little Davis.wav" WAVE
TRACK 13 AUDIO
TITLE "Little Davis"
PERFORMER "Foley"
INDEX 01 00:00:00
FILE "14 – Who Did What .wav" WAVE
TRACK 14 AUDIO
TITLE "Who Did What?"
PERFORMER "Foley"
INDEX 01 00:00:00
FILE "15 – Black Dog.wav" WAVE
TRACK 15 AUDIO
TITLE "Black Dog"
PERFORMER "Foley"
INDEX 01 00:00:00
FILE "16 – ....We Did what!!!!.wav" WAVE
TRACK 16 AUDIO
TITLE "....We Did what!!!!"
PERFORMER "Foley"
INDEX 01 00:00:00
FILE "17 – Date Rape (Remix) 40 Solos & A Mule.wav" WAVE
TRACK 17 AUDIO
TITLE "Date Rape (Remix) 40 Solos & A Mule"
PERFORMER "Foley"
INDEX 01 00:00:00
FILE "18 – The Godfather (Interlude).wav" WAVE
TRACK 18 AUDIO
TITLE "The Godfather (Interlude)"
PERFORMER "Foley"
INDEX 01 00:00:00
FILE "19 – Dreams On Da Floor.wav" WAVE
TRACK 19 AUDIO
TITLE "Dreams On Da Floor"
PERFORMER "Foley"
INDEX 01 00:00:00
FILE "20 – Closing.wav" WAVE
TRACK 20 AUDIO
TITLE "Closing"
PERFORMER "Foley"
INDEX 01 00:00:00
FILE "21 – Set N It Straight.wav" WAVE
TRACK 21 AUDIO
TITLE "Set N It Straight"
PERFORMER "Foley"
INDEX 01 00:00:00
FILE "22 – The Senate.wav" WAVE
TRACK 22 AUDIO
TITLE "The Senate"
PERFORMER "Foley"
INDEX 01 00:00:00
Приватный:
Нет (DHT включён)
Размер:
421.26 Мб (441,722,539 байт) » файлов: 33
Участники:
0 раздают, 0 качают (0 участников всего)
Внешние участники:
3 раздают, 1 качают (4 участников всего) [ Обновить ]
Есть вопросы - пишите личное сообщение пользователю M0p94ok.
03:02
30
Нет комментариев. Ваш будет первым!