Поиск

(Funk, Soul, Psychedelic) Funkadelic - 8 albums, 1970-1989, FLAC (tracks+.cue), lossless

(Funk, Soul, Psychedelic) Funkadelic - 8 albums, 1970-1989, FLAC (tracks+.cue), lossless
Треклист:
Funkadelic
Жанр: Funk, Soul, Psychedelic
Аудио кодек: FLAC
Тип рипа: tracks+.cue
Год выпуска альюомов: 1970-1989
Битрейт аудио: lossless
Продолжительность: 07:56:25
Источники: Собственноручные рипы с оригинальных дисков от funky_cat!:
Standing On The Verge Of Getting It On (CDSEWM 040),
The Electric Spanking Of War Babies (SNAP 215 CD),
Hardcore Jollies (72435-39377-2-0).
Остальные 5 релизов, полученные из достоверных источников, добавлены 21.01.2018:
By Way Of The Drum (Hip-O Select - B0007399-02) [1989] [2007],
Funkadelic (1970) [1989],
Motor City Madness (СCDSWM2 140) [2003],
Standing On The Verge Of Getting It On (1974) [2005],
Uncle Jam Wants You [Charly Groove - CDGR 103] (1993).
 
Funkadelic - By Way Of The Drum (Hip-O Select - B0007399-02) (1989) [2007]

Продолжительность: 01:12:51
01. Funkadelic - Nose Bleed [5:44]
02. Funkadelic - Sunshine Of Your Love [5:26]
03. Funkadelic - Freaks Bearing Gifts [6:01]
04. Funkadelic - Yadadada [5:08]
05. Funkadelic - By Way Of The Drum [6:00]
06. Funkadelic - Jugular [5:57]
07. Funkadelic - Some Fresh Delic [5:25]
08. Funkadelic - Primal Instinct [4:54]
09. Funkadelic - By Way Of The Drum (Extended Version) [9:17]
10. Funkadelic - By Way Of The Drum (Dub) [6:56]
11. Funkadelic - By Way Of The Drum (Basstrumental) [6:11]
12. Funkadelic - By Way Of The Drum (Acappella) [5:51]
 
log and sheet
 
Log
Exact Audio Copy V0.99 prebeta 5 from 4. May 2009
EAC extraction logfile from 27. January 2010, 17:02
Funkadelic / By Way Of The Drum
Used drive : Optiarc DVD RW AD-7590S Adapter: 2 ID: 0
Read mode : Secure
Utilize accurate stream : Yes
Defeat audio cache : Yes
Make use of C2 pointers : No
Read offset correction : 48
Overread into Lead-In and Lead-Out : No
Fill up missing offset samples with silence : Yes
Delete leading and trailing silent blocks : No
Null samples used in CRC calculations : Yes
Used interface : Installed external ASPI interface
Gap handling : Appended to previous track
Used output format : User Defined Encoder
Selected bitrate : 768 kBit/s
Quality : High
Add ID3 tag : No
Command line compressor : C:\Program Files\Exact Audio Copy\flac.exe
Additional command line options : -6 -V -T "ARTIST=%a" -T "TITLE=%t" -T "ALBUM=%g" -T "DATE=%y" -T "TRACKNUMBER=%n" -T "GENRE=%m" -T "COMMENT=%e" %s -o %d
TOC of the extracted CD
Track | Start | Length | Start sector | End sector
---------------------------------------------------------
1 | 0:00.00 | 5:44.24 | 0 | 25823
2 | 5:44.24 | 5:26.32 | 25824 | 50305
3 | 11:10.56 | 6:01.25 | 50306 | 77405
4 | 17:12.06 | 5:07.74 | 77406 | 100504
5 | 22:20.05 | 5:59.73 | 100505 | 127502
6 | 28:20.03 | 5:57.24 | 127503 | 154301
7 | 34:17.27 | 5:25.04 | 154302 | 178680
8 | 39:42.31 | 4:53.56 | 178681 | 200711
9 | 44:36.12 | 9:17.29 | 200712 | 242515
10 | 53:53.41 | 6:55.63 | 242516 | 273703
11 | 60:49.29 | 6:11.15 | 273704 | 301543
12 | 67:00.44 | 5:50.68 | 301544 | 327861
Track 1
Filename C:\Addis Gugsa love your HDD\01 - Nose Bleed.wav
Pre-gap length 0:00:02.00
Peak level 93.3 %
Track quality 99.9 %
Test CRC 4830819C
Copy CRC 4830819C
Accurately ripped (confidence 2) [166C59F0]
Copy OK
Track 2
Filename C:\Addis Gugsa love your HDD\02 - Sunshine Of Your Love.wav
Peak level 93.3 %
Track quality 99.9 %
Test CRC D9C6AF14
Copy CRC D9C6AF14
Accurately ripped (confidence 2) [8FC7D14D]
Copy OK
Track 3
Filename C:\Addis Gugsa love your HDD\03 - Freaks Bearing Gifts.wav
Peak level 92.6 %
Track quality 100.0 %
Test CRC 63425A7D
Copy CRC 63425A7D
Accurately ripped (confidence 2) [6A04E5CC]
Copy OK
Track 4
Filename C:\Addis Gugsa love your HDD\04 - Yadadada.wav
Peak level 93.1 %
Track quality 100.0 %
Test CRC 7435E0DC
Copy CRC 7435E0DC
Accurately ripped (confidence 2) [05E7B653]
Copy OK
Track 5
Filename C:\Addis Gugsa love your HDD\05 - By Way Of The Drum.wav
Pre-gap length 0:00:01.02
Peak level 93.6 %
Track quality 99.9 %
Test CRC F9696AAF
Copy CRC F9696AAF
Accurately ripped (confidence 2) [657BBD1D]
Copy OK
Track 6
Filename C:\Addis Gugsa love your HDD\06 - Jugular.wav
Peak level 80.2 %
Track quality 100.0 %
Test CRC 39B65187
Copy CRC 39B65187
Accurately ripped (confidence 2) [9314529E]
Copy OK
Track 7
Filename C:\Addis Gugsa love your HDD\07 - Some Fresh Delic.wav
Peak level 84.7 %
Track quality 100.0 %
Test CRC EA9290B9
Copy CRC EA9290B9
Accurately ripped (confidence 2) [FDAAC594]
Copy OK
Track 8
Filename C:\Addis Gugsa love your HDD\08 - Primal Instinct.wav
Peak level 84.7 %
Track quality 100.0 %
Test CRC F60B1937
Copy CRC F60B1937
Accurately ripped (confidence 2) [5A72C8A5]
Copy OK
Track 9
Filename C:\Addis Gugsa love your HDD\09 - By Way Of The Drum (Extended Version).wav
Pre-gap length 0:00:01.04
Peak level 94.5 %
Track quality 100.0 %
Test CRC 7EAC959D
Copy CRC 7EAC959D
Accurately ripped (confidence 2) [00072B61]
Copy OK
Track 10
Filename C:\Addis Gugsa love your HDD\10 - By Way Of The Drum (Dub).wav
Pre-gap length 0:00:01.02
Peak level 94.3 %
Track quality 100.0 %
Test CRC 21757A03
Copy CRC 21757A03
Accurately ripped (confidence 2) [CFD482FF]
Copy OK
Track 11
Filename C:\Addis Gugsa love your HDD\11 - By Way Of The Drum (Basstrumental).wav
Pre-gap length 0:00:01.08
Peak level 94.3 %
Track quality 100.0 %
Test CRC F62FB77A
Copy CRC F62FB77A
Accurately ripped (confidence 2) [81FC3E11]
Copy OK
Track 12
Filename C:\Addis Gugsa love your HDD\12 - By Way Of The Drum (Acappella).wav
Pre-gap length 0:00:01.02
Peak level 94.6 %
Track quality 100.0 %
Test CRC 3CE829FA
Copy CRC 3CE829FA
Accurately ripped (confidence 2) [548D0108]
Copy OK
All tracks accurately ripped
No errors occurred
End of status report
 
CUE
REM GENRE Funk
REM DATE 1989
REM DISCID 9611130C
REM COMMENT "ExactAudioCopy v0.99pb5"
PERFORMER "Funkadelic"
TITLE "By Way Of The Drum"
FILE "01 - Nose Bleed.wav" WAVE
TRACK 01 AUDIO
TITLE "Nose Bleed"
PERFORMER "Funkadelic"
INDEX 01 00:00:00
FILE "02 - Sunshine Of Your Love.wav" WAVE
TRACK 02 AUDIO
TITLE "Sunshine Of Your Love"
PERFORMER "Funkadelic"
INDEX 01 00:00:00
FILE "03 - Freaks Bearing Gifts.wav" WAVE
TRACK 03 AUDIO
TITLE "Freaks Bearing Gifts"
PERFORMER "Funkadelic"
INDEX 01 00:00:00
FILE "04 - Yadadada.wav" WAVE
TRACK 04 AUDIO
TITLE "Yadadada"
PERFORMER "Funkadelic"
INDEX 01 00:00:00
TRACK 05 AUDIO
TITLE "By Way Of The Drum"
PERFORMER "Funkadelic"
INDEX 00 05:06:72
FILE "05 - By Way Of The Drum.wav" WAVE
INDEX 01 00:00:00
FILE "06 - Jugular.wav" WAVE
TRACK 06 AUDIO
TITLE "Jugular"
PERFORMER "Funkadelic"
INDEX 01 00:00:00
FILE "07 - Some Fresh Delic.wav" WAVE
TRACK 07 AUDIO
TITLE "Some Fresh Delic"
PERFORMER "Funkadelic"
INDEX 01 00:00:00
FILE "08 - Primal Instinct.wav" WAVE
TRACK 08 AUDIO
TITLE "Primal Instinct"
PERFORMER "Funkadelic"
INDEX 01 00:00:00
TRACK 09 AUDIO
TITLE "By Way Of The Drum (Extended Version)"
PERFORMER "Funkadelic"
INDEX 00 04:52:53
FILE "09 - By Way Of The Drum (Extended Version).wav" WAVE
INDEX 01 00:00:00
TRACK 10 AUDIO
TITLE "By Way Of The Drum (Dub)"
PERFORMER "Funkadelic"
INDEX 00 09:16:27
FILE "10 - By Way Of The Drum (Dub).wav" WAVE
INDEX 01 00:00:00
TRACK 11 AUDIO
TITLE "By Way Of The Drum (Basstrumental)"
PERFORMER "Funkadelic"
INDEX 00 06:54:57
FILE "11 - By Way Of The Drum (Basstrumental).wav" WAVE
INDEX 01 00:00:00
TRACK 12 AUDIO
TITLE "By Way Of The Drum (Acappella)"
PERFORMER "Funkadelic"
INDEX 00 06:10:13
FILE "12 - By Way Of The Drum (Acappella).wav" WAVE
INDEX 01 00:00:00
 
Funkadelic - Funkadelic (1970) [1989]

Продолжительность: 46:57
01. Funkadelic - Mommy, What's A Funkadelic? [9:08]
02. Funkadelic - I Bet You [6:12]
03. Funkadelic - Music For My Mother [5:40]
04. Funkadelic - I Got A Thing, You Got A Thing, Everybody's Got A Thing [3:55]
05. Funkadelic - Good Old Music [8:05]
06. Funkadelic - Qualify & Satisfy [6:18]
07. Funkadelic - What Is Soul [7:40]
 
log and sheet
 
Log
EAC extraction logfile from 21. February 2008, 15:11 for CD
Funkadelic / Funkadelic
Used drive : TSSTcorpCD/DVDW SH-S182D Adapter: 5 ID: 0
Read mode : Secure with NO C2, accurate stream, disable cache
Read offset correction : 6
Overread into Lead-In and Lead-Out : No
Used output format : C:\Program Files\Exact Audio Copy\flac.exe (User Defined Encoder)
320 kBit/s
Additional command line options : -8 -V -T "ARTIST=%a" -T "TITLE=%t" -T "ALBUM=%g" -T "DATE=%y" -T "TRACKNUMBER=%n" -T "GENRE=%m" -T "COMMENT=EAC FLAC -8" %s
Other options :
Fill up missing offset samples with silence : Yes
Delete leading and trailing silent blocks : No
Installed external ASPI interface
Track 1
Filename F:\FLAC P\Funkadelic - Funkadelic (1971) [FLAC]\01 - Mommy, What's A Funkadelic .wav
Pre-gap length 0:00:02.00
Peak level 39.1 %
Track quality 99.9 %
Test CRC 57295F09
Copy CRC 57295F09
Copy OK
Track 2
Filename F:\FLAC P\Funkadelic - Funkadelic (1971) [FLAC]\02 - I Bet You.wav
Pre-gap length 0:00:02.53
Peak level 35.9 %
Track quality 100.0 %
Test CRC 1696F024
Copy CRC 1696F024
Copy OK
Track 3
Filename F:\FLAC P\Funkadelic - Funkadelic (1971) [FLAC]\03 - Music For My Mother.wav
Pre-gap length 0:00:02.77
Peak level 41.1 %
Track quality 100.0 %
Test CRC 7C7F7BC0
Copy CRC 7C7F7BC0
Copy OK
Track 4
Filename F:\FLAC P\Funkadelic - Funkadelic (1971) [FLAC]\04 - I Got A Thing, You Got A Thing, Everybody's Got A Thing.wav
Pre-gap length 0:00:02.57
Peak level 36.8 %
Track quality 100.0 %
Test CRC 5E544431
Copy CRC 5E544431
Copy OK
Track 5
Filename F:\FLAC P\Funkadelic - Funkadelic (1971) [FLAC]\05 - Good Old Music.wav
Pre-gap length 0:00:02.64
Peak level 36.2 %
Track quality 99.9 %
Test CRC F13A0ED9
Copy CRC F13A0ED9
Copy OK
Track 6
Filename F:\FLAC P\Funkadelic - Funkadelic (1971) [FLAC]\06 - Qualify & Satisfy.wav
Pre-gap length 0:00:02.86
Peak level 31.9 %
Track quality 100.0 %
Test CRC 3760AF54
Copy CRC 3760AF54
Copy OK
Track 7
Filename F:\FLAC P\Funkadelic - Funkadelic (1971) [FLAC]\07 - What Is Soul.wav
Pre-gap length 0:00:02.40
Peak level 34.4 %
Track quality 100.0 %
Test CRC 5536C618
Copy CRC 5536C618
Copy OK
No errors occured
End of status report
 
CUE
REM GENRE R&B
REM DATE 1971
REM DISCID 640B0107
REM COMMENT "ExactAudioCopy v0.95b4"
PERFORMER "Funkadelic"
TITLE "Funkadelic"
FILE "01 - Mommy, What's A Funkadelic .wav" WAVE
TRACK 01 AUDIO
TITLE "Mommy, What's A Funkadelic?"
PERFORMER "Funkadelic"
INDEX 01 00:00:00
TRACK 02 AUDIO
TITLE "I Bet You"
PERFORMER "Funkadelic"
INDEX 00 09:05:00
FILE "02 - I Bet You.wav" WAVE
INDEX 01 00:00:00
TRACK 03 AUDIO
TITLE "Music For My Mother"
PERFORMER "Funkadelic"
INDEX 00 06:09:22
FILE "03 - Music For My Mother.wav" WAVE
INDEX 01 00:00:00
TRACK 04 AUDIO
TITLE "I Got A Thing, You Got A Thing, Everybody's Got A Thing"
PERFORMER "Funkadelic"
INDEX 00 05:37:22
FILE "04 - I Got A Thing, You Got A Thing, Everybody's Got A Thing.wav" WAVE
INDEX 01 00:00:00
TRACK 05 AUDIO
TITLE "Good Old Music"
PERFORMER "Funkadelic"
INDEX 00 03:52:17
FILE "05 - Good Old Music.wav" WAVE
INDEX 01 00:00:00
TRACK 06 AUDIO
TITLE "Qualify & Satisfy"
PERFORMER "Funkadelic"
INDEX 00 08:02:45
FILE "06 - Qualify & Satisfy.wav" WAVE
INDEX 01 00:00:00
TRACK 07 AUDIO
TITLE "What Is Soul"
PERFORMER "Funkadelic"
INDEX 00 06:15:22
FILE "07 - What Is Soul.wav" WAVE
INDEX 01 00:00:00
 
Funkadelic - Motor City Madness (СCDSWM2 140) [2003]

Продолжительность: 02:28:17
CD 1
01. Funkadelic - Free Your Mind And Your Ass Will Follow [10:05]
02. Funkadelic - Red Hot Mama [3:25]
03. Funkadelic - You Can't Miss What You Can't Measure [3:04]
04. Funkadelic - Standing On The Verge Of Getting It On [5:10]
05. Funkadelic - Funky Dollar Bill [3:16]
06. Funkadelic - Hit It And Quit It [3:50]
07. Funkadelic - Cosmic Slop [5:19]
08. Funkadelic - Better By The Pound [2:42]
09. Funkadelic - Take Your Dead Ass Home [7:18]
10. Funkadelic - Loose Booty [4:54]
11. Funkadelic - Get Off Your Ass And Jam [2:26]
12. Funkadelic - Sexy Ways [3:07]
13. Funkadelic - Music For My Mother [5:39]
14. Funkadelic - America Eats Its Young [5:54]
15. Funkadelic - March To The Witch's Castle [6:01]
CD 2
01. Funkadelic - Maggot Brain [10:21]
02. Funkadelic - I'll Stay [7:19]
03. Funkadelic - I Wanna Know If It's Good To You [6:01]
04. Funkadelic - Can You Get To That [2:50]
05. Funkadelic - I'll Bet You [3:57]
06. Funkadelic - Nappy Dugout [4:35]
07. Funkadelic - A Joyful Process [6:15]
08. Funkadelic - Be My Beach [2:38]
09. Funkadelic - Undisco Kid [6:36]
10. Funkadelic - Biological Speculation [3:08]
11. Funkadelic - You And Your Folks, Me And My Folks [3:37]
12. Funkadelic - I Got A Thing, You Got A Thing, Everybody's Got A Thing [3:54]
13. Funkadelic - Baby I Owe You Something Good [5:49]
14. Funkadelic - Mommy, What's A Funkadelic? [9:07]
 
log's and cue's
 
Log CD 1
Exact Audio Copy V0.99 prebeta 4 from 23. January 2008
EAC extraction logfile from 24. May 2009, 22:11
Funkadelic / Motor City Madness (Disc 1)
Used drive : TSSTcorpCD/DVDW TS-H652M Adapter: 1 ID: 0
Read mode : Secure
Utilize accurate stream : Yes
Defeat audio cache : Yes
Make use of C2 pointers : No
Read offset correction : 6
Overread into Lead-In and Lead-Out : No
Fill up missing offset samples with silence : Yes
Delete leading and trailing silent blocks : No
Null samples used in CRC calculations : Yes
Used interface : Native Win32 interface for Win NT & 2000
Gap handling : Appended to previous track
Used output format : User Defined Encoder
Selected bitrate : 320 kBit/s
Quality : High
Add ID3 tag : No
Command line compressor : C:\Program Files\Exact Audio Copy\Flac\flac.exe
Additional command line options : -8 -V -T "ARTIST=%a" -T "TITLE=%t" -T "ALBUM=%g" -T "DATE=%y" -T "TRACKNUMBER=%n" -T "TOTALTRACKS=%x" -T "GENRE=%m" -T "ALBUM ARTIST=%v" -T "ALBUMARTIST=%v" -T "COMMENT=EAC V0.99 prebeta 4, Secure Mode, Test & Copy, Accura
TOC of the extracted CD
Track | Start | Length | Start sector | End sector
---------------------------------------------------------
1 | 0:00.00 | 10:05.16 | 0 | 45390
2 | 10:05.16 | 3:25.32 | 45391 | 60797
3 | 13:30.48 | 3:04.05 | 60798 | 74602
4 | 16:34.53 | 5:09.46 | 74603 | 97823
5 | 21:44.24 | 3:16.25 | 97824 | 112548
6 | 25:00.49 | 3:50.21 | 112549 | 129819
7 | 28:50.70 | 5:19.01 | 129820 | 153745
8 | 34:09.71 | 2:42.21 | 153746 | 165916
9 | 36:52.17 | 7:17.56 | 165917 | 198747
10 | 44:09.73 | 4:54.21 | 198748 | 220818
11 | 49:04.19 | 2:25.50 | 220819 | 231743
12 | 51:29.69 | 3:06.50 | 231744 | 245743
13 | 54:36.44 | 5:38.49 | 245744 | 271142
14 | 60:15.18 | 5:53.47 | 271143 | 297664
15 | 66:08.65 | 6:01.26 | 297665 | 324765
Track 1
Filename C:\CDs\Funkadelic - Motor City Madness (2003) [FLAC]\Disc 1\01 - Free Your Mind and Your Ass Will Follow.wav
Pre-gap length 0:00:02.00
Peak level 97.1 %
Track quality 100.0 %
Test CRC 5DC345C8
Copy CRC 5DC345C8
Accurately ripped (confidence 2) [748C0BD7]
Copy OK
Track 2
Filename C:\CDs\Funkadelic - Motor City Madness (2003) [FLAC]\Disc 1\02 - Red Hot Mama.wav
Pre-gap length 0:00:00.58
Peak level 97.1 %
Track quality 100.0 %
Test CRC F91F21B1
Copy CRC F91F21B1
Accurately ripped (confidence 2) [D86D7F1B]
Copy OK
Track 3
Filename C:\CDs\Funkadelic - Motor City Madness (2003) [FLAC]\Disc 1\03 - You Can't Miss What You Can't Measure.wav
Pre-gap length 0:00:01.05
Peak level 97.0 %
Track quality 100.0 %
Test CRC F4D7D209
Copy CRC F4D7D209
Accurately ripped (confidence 2) [633856E8]
Copy OK
Track 4
Filename C:\CDs\Funkadelic - Motor City Madness (2003) [FLAC]\Disc 1\04 - Standing on the Verge of Getting It On.wav
Pre-gap length 0:00:00.73
Peak level 97.1 %
Track quality 100.0 %
Test CRC 7F093DD6
Copy CRC 7F093DD6
Accurately ripped (confidence 2) [EBE66936]
Copy OK
Track 5
Filename C:\CDs\Funkadelic - Motor City Madness (2003) [FLAC]\Disc 1\05 - Funky Dollar Bill.wav
Pre-gap length 0:00:01.13
Peak level 94.3 %
Track quality 100.0 %
Test CRC 5473340F
Copy CRC 5473340F
Accurately ripped (confidence 2) [87E4C237]
Copy OK
Track 6
Filename C:\CDs\Funkadelic - Motor City Madness (2003) [FLAC]\Disc 1\06 - Hit It and Quit It.wav
Pre-gap length 0:00:01.18
Peak level 90.1 %
Track quality 100.0 %
Test CRC 340528BA
Copy CRC 340528BA
Accurately ripped (confidence 2) [05BC1463]
Copy OK
Track 7
Filename C:\CDs\Funkadelic - Motor City Madness (2003) [FLAC]\Disc 1\07 - Cosmic Slop.wav
Pre-gap length 0:00:01.53
Peak level 97.1 %
Track quality 100.0 %
Test CRC B71A6862
Copy CRC B71A6862
Accurately ripped (confidence 2) [B76D28C5]
Copy OK
Track 8
Filename C:\CDs\Funkadelic - Motor City Madness (2003) [FLAC]\Disc 1\08 - Better by the Pound.wav
Pre-gap length 0:00:00.98
Peak level 97.1 %
Track quality 100.0 %
Test CRC 61211A37
Copy CRC 61211A37
Accurately ripped (confidence 2) [3EBCD211]
Copy OK
Track 9
Filename C:\CDs\Funkadelic - Motor City Madness (2003) [FLAC]\Disc 1\09 - Take Your Dead Ass Home.wav
Pre-gap length 0:00:00.48
Peak level 97.2 %
Track quality 100.0 %
Test CRC 37893DA9
Copy CRC 37893DA9
Accurately ripped (confidence 2) [34DA19F1]
Copy OK
Track 10
Filename C:\CDs\Funkadelic - Motor City Madness (2003) [FLAC]\Disc 1\10 - Loose Booty.wav
Pre-gap length 0:00:01.17
Peak level 97.1 %
Track quality 100.0 %
Test CRC 03B03519
Copy CRC 03B03519
Accurately ripped (confidence 2) [FC2F1D8F]
Copy OK
Track 11
Filename C:\CDs\Funkadelic - Motor City Madness (2003) [FLAC]\Disc 1\11 - Get Off Your Ass and Jam.wav
Pre-gap length 0:00:01.42
Peak level 97.1 %
Track quality 100.0 %
Test CRC 003CE5B8
Copy CRC 003CE5B8
Accurately ripped (confidence 2) [BEDD3821]
Copy OK
Track 12
Filename C:\CDs\Funkadelic - Motor City Madness (2003) [FLAC]\Disc 1\12 - Sexy Ways.wav
Pre-gap length 0:00:01.08
Peak level 97.1 %
Track quality 100.0 %
Test CRC 220BFF7C
Copy CRC 220BFF7C
Accurately ripped (confidence 2) [F625917C]
Copy OK
Track 13
Filename C:\CDs\Funkadelic - Motor City Madness (2003) [FLAC]\Disc 1\13 - Music for My Mother.wav
Pre-gap length 0:00:01.89
Peak level 97.1 %
Track quality 100.0 %
Test CRC 50EEB50B
Copy CRC 50EEB50B
Accurately ripped (confidence 2) [BD52890E]
Copy OK
Track 14
Filename C:\CDs\Funkadelic - Motor City Madness (2003) [FLAC]\Disc 1\14 - America Eats Its Young.wav
Pre-gap length 0:00:01.54
Peak level 87.7 %
Track quality 99.9 %
Test CRC 17BEA984
Copy CRC 17BEA984
Accurately ripped (confidence 2) [E115F25A]
Copy OK
Track 15
Filename C:\CDs\Funkadelic - Motor City Madness (2003) [FLAC]\Disc 1\15 - March to the Witch's Castle.wav
Pre-gap length 0:00:01.26
Peak level 90.1 %
Track quality 100.0 %
Test CRC 4E123980
Copy CRC 4E123980
Accurately ripped (confidence 2) [6FC3FD2D]
Copy OK
All tracks accurately ripped
No errors occurred
End of status report
 
Cue CD 1
REM GENRE Funk
REM DATE 2003
REM DISCID CA10EA0F
REM COMMENT "ExactAudioCopy v0.99pb4"
PERFORMER "Funkadelic"
TITLE "Motor City Madness: The Ultimate Funkadelic Westbound Records Compilation (Disc 1)"
FILE "01 - Free Your Mind and Your Ass Will Follow.wav" WAVE
TRACK 01 AUDIO
TITLE "Free Your Mind and Your Ass Will Follow"
PERFORMER "Funkadelic"
INDEX 01 00:00:00
TRACK 02 AUDIO
TITLE "Red Hot Mama"
PERFORMER "Funkadelic"
INDEX 00 10:04:47
FILE "02 - Red Hot Mama.wav" WAVE
INDEX 01 00:00:00
TRACK 03 AUDIO
TITLE "You Can't Miss What You Can't Measure"
PERFORMER "Funkadelic"
INDEX 00 03:24:28
FILE "03 - You Can't Miss What You Can't Measure.wav" WAVE
INDEX 01 00:00:00
TRACK 04 AUDIO
TITLE "Standing on the Verge of Getting It On"
PERFORMER "Funkadelic"
INDEX 00 03:03:25
FILE "04 - Standing on the Verge of Getting It On.wav" WAVE
INDEX 01 00:00:00
TRACK 05 AUDIO
TITLE "Funky Dollar Bill"
PERFORMER "Funkadelic"
INDEX 00 05:08:36
FILE "05 - Funky Dollar Bill.wav" WAVE
INDEX 01 00:00:00
TRACK 06 AUDIO
TITLE "Hit It and Quit It"
PERFORMER "Funkadelic"
INDEX 00 03:15:11
FILE "06 - Hit It and Quit It.wav" WAVE
INDEX 01 00:00:00
TRACK 07 AUDIO
TITLE "Cosmic Slop"
PERFORMER "Funkadelic"
INDEX 00 03:48:56
FILE "07 - Cosmic Slop.wav" WAVE
INDEX 01 00:00:00
TRACK 08 AUDIO
TITLE "Better by the Pound"
PERFORMER "Funkadelic"
INDEX 00 05:18:02
FILE "08 - Better by the Pound.wav" WAVE
INDEX 01 00:00:00
TRACK 09 AUDIO
TITLE "Take Your Dead Ass Home"
PERFORMER "Funkadelic"
INDEX 00 02:41:60
FILE "09 - Take Your Dead Ass Home.wav" WAVE
INDEX 01 00:00:00
TRACK 10 AUDIO
TITLE "Loose Booty"
PERFORMER "Funkadelic"
INDEX 00 07:16:43
FILE "10 - Loose Booty.wav" WAVE
INDEX 01 00:00:00
TRACK 11 AUDIO
TITLE "Get Off Your Ass and Jam"
PERFORMER "Funkadelic"
INDEX 00 04:52:64
FILE "11 - Get Off Your Ass and Jam.wav" WAVE
INDEX 01 00:00:00
TRACK 12 AUDIO
TITLE "Sexy Ways"
PERFORMER "Funkadelic"
INDEX 00 02:24:44
FILE "12 - Sexy Ways.wav" WAVE
INDEX 01 00:00:00
TRACK 13 AUDIO
TITLE "Music for My Mother"
PERFORMER "Funkadelic"
INDEX 00 03:04:58
FILE "13 - Music for My Mother.wav" WAVE
INDEX 01 00:00:00
TRACK 14 AUDIO
TITLE "America Eats Its Young"
PERFORMER "Funkadelic"
INDEX 00 05:37:08
FILE "14 - America Eats Its Young.wav" WAVE
INDEX 01 00:00:00
TRACK 15 AUDIO
TITLE "March to the Witch's Castle"
PERFORMER "Funkadelic"
INDEX 00 05:52:27
FILE "15 - March to the Witch's Castle.wav" WAVE
INDEX 01 00:00:00
 
Log CD 2
Exact Audio Copy V0.99 prebeta 4 from 23. January 2008
EAC extraction logfile from 24. May 2009, 22:58
Funkadelic / Motor City Madness (Disc 2)
Used drive : TSSTcorpCD/DVDW TS-H652M Adapter: 1 ID: 0
Read mode : Secure
Utilize accurate stream : Yes
Defeat audio cache : Yes
Make use of C2 pointers : No
Read offset correction : 6
Overread into Lead-In and Lead-Out : No
Fill up missing offset samples with silence : Yes
Delete leading and trailing silent blocks : No
Null samples used in CRC calculations : Yes
Used interface : Native Win32 interface for Win NT & 2000
Gap handling : Appended to previous track
Used output format : User Defined Encoder
Selected bitrate : 320 kBit/s
Quality : High
Add ID3 tag : No
Command line compressor : C:\Program Files\Exact Audio Copy\Flac\flac.exe
Additional command line options : -8 -V -T "ARTIST=%a" -T "TITLE=%t" -T "ALBUM=%g" -T "DATE=%y" -T "TRACKNUMBER=%n" -T "TOTALTRACKS=%x" -T "GENRE=%m" -T "ALBUM ARTIST=%v" -T "ALBUMARTIST=%v" -T "COMMENT=EAC V0.99 prebeta 4, Secure Mode, Test & Copy, Accura
TOC of the extracted CD
Track | Start | Length | Start sector | End sector
---------------------------------------------------------
1 | 0:00.00 | 10:21.00 | 0 | 46574
2 | 10:21.00 | 7:18.42 | 46575 | 79466
3 | 17:39.42 | 6:00.66 | 79467 | 106532
4 | 23:40.33 | 2:50.15 | 106533 | 119297
5 | 26:30.48 | 3:57.33 | 119298 | 137105
6 | 30:28.06 | 4:34.66 | 137106 | 157721
7 | 35:02.72 | 6:15.04 | 157722 | 185850
8 | 41:18.01 | 2:38.23 | 185851 | 197723
9 | 43:56.24 | 6:35.71 | 197724 | 227419
10 | 50:32.20 | 3:08.22 | 227420 | 241541
11 | 53:40.42 | 3:36.46 | 241542 | 257787
12 | 57:17.13 | 3:54.16 | 257788 | 275353
13 | 61:11.29 | 5:48.59 | 275354 | 301512
14 | 67:00.13 | 9:06.69 | 301513 | 342531
Track 1
Filename C:\CDs\Funkadelic - Motor City Madness (2003) [FLAC]\Disc 2\01 - Maggot Brain.wav
Pre-gap length 0:00:02.00
Peak level 92.0 %
Track quality 100.0 %
Test CRC B89497C1
Copy CRC B89497C1
Accurately ripped (confidence 4) [F43B861F]
Copy OK
Track 2
Filename C:\CDs\Funkadelic - Motor City Madness (2003) [FLAC]\Disc 2\02 - I'll Stay.wav
Pre-gap length 0:00:02.12
Peak level 95.0 %
Track quality 100.0 %
Test CRC BBEE17B7
Copy CRC BBEE17B7
Accurately ripped (confidence 4) [D87A29AB]
Copy OK
Track 3
Filename C:\CDs\Funkadelic - Motor City Madness (2003) [FLAC]\Disc 2\03 - I Wanna Know If It's Good to You.wav
Pre-gap length 0:00:01.53
Peak level 97.1 %
Track quality 100.0 %
Test CRC 243484D5
Copy CRC 243484D5
Accurately ripped (confidence 4) [27AC395B]
Copy OK
Track 4
Filename C:\CDs\Funkadelic - Motor City Madness (2003) [FLAC]\Disc 2\04 - Can You Get to That.wav
Pre-gap length 0:00:01.69
Peak level 92.8 %
Track quality 100.0 %
Test CRC 9E28CF3B
Copy CRC 9E28CF3B
Accurately ripped (confidence 4) [A17631C9]
Copy OK
Track 5
Filename C:\CDs\Funkadelic - Motor City Madness (2003) [FLAC]\Disc 2\05 - I'll Bet You.wav
Pre-gap length 0:00:01.36
Peak level 97.1 %
Track quality 99.9 %
Test CRC C492C717
Copy CRC C492C717
Accurately ripped (confidence 4) [71EA8C3D]
Copy OK
Track 6
Filename C:\CDs\Funkadelic - Motor City Madness (2003) [FLAC]\Disc 2\06 - Nappy Dugout.wav
Pre-gap length 0:00:01.52
Peak level 94.1 %
Track quality 100.0 %
Test CRC B39DB3C1
Copy CRC B39DB3C1
Accurately ripped (confidence 4) [4AC637F9]
Copy OK
Track 7
Filename C:\CDs\Funkadelic - Motor City Madness (2003) [FLAC]\Disc 2\07 - A Joyful Process.wav
Pre-gap length 0:00:01.76
Peak level 97.1 %
Track quality 100.0 %
Test CRC FD98894F
Copy CRC FD98894F
Accurately ripped (confidence 4) [73441C8C]
Copy OK
Track 8
Filename C:\CDs\Funkadelic - Motor City Madness (2003) [FLAC]\Disc 2\08 - Be My Beach.wav
Pre-gap length 0:00:01.52
Peak level 97.1 %
Track quality 100.0 %
Test CRC A186BAB4
Copy CRC A186BAB4
Accurately ripped (confidence 4) [765DDB7A]
Copy OK
Track 9
Filename C:\CDs\Funkadelic - Motor City Madness (2003) [FLAC]\Disc 2\09 - Undisco Kid.wav
Pre-gap length 0:00:01.78
Peak level 97.1 %
Track quality 100.0 %
Test CRC B8D253DC
Copy CRC B8D253DC
Accurately ripped (confidence 4) [C8DD7596]
Copy OK
Track 10
Filename C:\CDs\Funkadelic - Motor City Madness (2003) [FLAC]\Disc 2\10 - Biological Speculation.wav
Pre-gap length 0:00:01.56
Peak level 94.1 %
Track quality 99.9 %
Test CRC 0B087D1D
Copy CRC 0B087D1D
Accurately ripped (confidence 4) [DA401F87]
Copy OK
Track 11
Filename C:\CDs\Funkadelic - Motor City Madness (2003) [FLAC]\Disc 2\11 - You and Your Folks, Me and My Folks.wav
Pre-gap length 0:00:01.69
Peak level 94.1 %
Track quality 100.0 %
Test CRC D62151B9
Copy CRC D62151B9
Accurately ripped (confidence 4) [8F558482]
Copy OK
Track 12
Filename C:\CDs\Funkadelic - Motor City Madness (2003) [FLAC]\Disc 2\12 - I Got a Thing, You Got a Thing, Everybody's Got a Thing.wav
Pre-gap length 0:00:01.46
Peak level 97.1 %
Track quality 100.0 %
Test CRC 37CB29B5
Copy CRC 37CB29B5
Accurately ripped (confidence 4) [A8E04C69]
Copy OK
Track 13
Filename C:\CDs\Funkadelic - Motor City Madness (2003) [FLAC]\Disc 2\13 - Baby I Owe You Something Good.wav
Pre-gap length 0:00:01.65
Peak level 97.1 %
Track quality 100.0 %
Test CRC A3B4DB10
Copy CRC A3B4DB10
Accurately ripped (confidence 4) [43CF1A68]
Copy OK
Track 14
Filename C:\CDs\Funkadelic - Motor City Madness (2003) [FLAC]\Disc 2\14 - Mommy, What's a Funkadelic.wav
Pre-gap length 0:00:01.96
Peak level 97.1 %
Track quality 99.9 %
Test CRC B472D98F
Copy CRC B472D98F
Accurately ripped (confidence 4) [F5D90040]
Copy OK
All tracks accurately ripped
No errors occurred
End of status report
 
Cue CD 2
REM GENRE Funk
REM DATE 2003
REM DISCID A411D70E
REM COMMENT "ExactAudioCopy v0.99pb4"
PERFORMER "Funkadelic"
TITLE "Motor City Madness: The Ultimate Funkadelic Westbound Records Compilation (Disc 2)"
FILE "01 - Maggot Brain.wav" WAVE
TRACK 01 AUDIO
TITLE "Maggot Brain"
PERFORMER "Funkadelic"
INDEX 01 00:00:00
TRACK 02 AUDIO
TITLE "I'll Stay"
PERFORMER "Funkadelic"
INDEX 00 10:18:66
FILE "02 - I'll Stay.wav" WAVE
INDEX 01 00:00:00
TRACK 03 AUDIO
TITLE "I Wanna Know If It's Good to You"
PERFORMER "Funkadelic"
INDEX 00 07:17:02
FILE "03 - I Wanna Know If It's Good to You.wav" WAVE
INDEX 01 00:00:00
TRACK 04 AUDIO
TITLE "Can You Get to That"
PERFORMER "Funkadelic"
INDEX 00 05:59:14
FILE "04 - Can You Get to That.wav" WAVE
INDEX 01 00:00:00
TRACK 05 AUDIO
TITLE "I'll Bet You"
PERFORMER "Funkadelic"
INDEX 00 02:48:63
FILE "05 - I'll Bet You.wav" WAVE
INDEX 01 00:00:00
TRACK 06 AUDIO
TITLE "Nappy Dugout"
PERFORMER "Funkadelic"
INDEX 00 03:55:69
FILE "06 - Nappy Dugout.wav" WAVE
INDEX 01 00:00:00
TRACK 07 AUDIO
TITLE "A Joyful Process"
PERFORMER "Funkadelic"
INDEX 00 04:33:09
FILE "07 - A Joyful Process.wav" WAVE
INDEX 01 00:00:00
TRACK 08 AUDIO
TITLE "Be My Beach"
PERFORMER "Funkadelic"
INDEX 00 06:13:40
FILE "08 - Be My Beach.wav" WAVE
INDEX 01 00:00:00
TRACK 09 AUDIO
TITLE "Undisco Kid"
PERFORMER "Funkadelic"
INDEX 00 02:36:39
FILE "09 - Undisco Kid.wav" WAVE
INDEX 01 00:00:00
TRACK 10 AUDIO
TITLE "Biological Speculation"
PERFORMER "Funkadelic"
INDEX 00 06:34:29
FILE "10 - Biological Speculation.wav" WAVE
INDEX 01 00:00:00
TRACK 11 AUDIO
TITLE "You and Your Folks, Me and My Folks"
PERFORMER "Funkadelic"
INDEX 00 03:06:45
FILE "11 - You and Your Folks, Me and My Folks.wav" WAVE
INDEX 01 00:00:00
TRACK 12 AUDIO
TITLE "I Got a Thing, You Got a Thing, Everybody's Got a Thing"
PERFORMER "Funkadelic"
INDEX 00 03:35:11
FILE "12 - I Got a Thing, You Got a Thing, Everybody's Got a Thing.wav" WAVE
INDEX 01 00:00:00
TRACK 13 AUDIO
TITLE "Baby I Owe You Something Good"
PERFORMER "Funkadelic"
INDEX 00 03:52:42
FILE "13 - Baby I Owe You Something Good.wav" WAVE
INDEX 01 00:00:00
TRACK 14 AUDIO
TITLE "Mommy, What's a Funkadelic?"
PERFORMER "Funkadelic"
INDEX 00 05:46:62
FILE "14 - Mommy, What's a Funkadelic.wav" WAVE
INDEX 01 00:00:00
 
Funkadelic - Hardcore Jollies (72435-39377-2-0) 1976 (remastered 2002)
Продолжительность:39 min 58 sec
1. Funkadelic - Comin' Round the Mountain (5:50)
2. Funkadelic - Smokey (6:06)
3. Funkadelic - If You Got Funk, You Got Style (3:07)
4. Funkadelic - Hardcore Jollies (5:01)
5. Funkadelic - Soul Mate (2:47)
6. Funkadelic - Cosmic Slop (6:27)
7. Funkadelic - You Scared the Lovin' Outta Me (6:23)
8. Funkadelic - Adolescent Funk (4:17)
 
Log EAC
Exact Audio Copy V0.99 prebeta 5 from 4. May 2009
EAC extraction logfile from 13. March 2010, 0:55
Funkadelic / Hardcore Jollies
Used drive : ASUS DRW-1608P2 Adapter: 0 ID: 0
Read mode : Secure
Utilize accurate stream : Yes
Defeat audio cache : Yes
Make use of C2 pointers : No
Read offset correction : 48
Overread into Lead-In and Lead-Out : No
Fill up missing offset samples with silence : Yes
Delete leading and trailing silent blocks : No
Null samples used in CRC calculations : Yes
Used interface : Native Win32 interface for Win NT & 2000
Gap handling : Appended to previous track
Used output format : User Defined Encoder
Selected bitrate : 1024 kBit/s
Quality : High
Add ID3 tag : No
Command line compressor : C:\Program Files\FLAC\flac.exe
Additional command line options : -5 -V -T "ARTIST=%a" -T "TITLE=%t" -T "ALBUM=%g" -T "DATE=%y" -T "TRACKNUMBER=%n" -T "GENRE=%m" -T "COMMENT=Ripped by andygrakoff aka yetiisyou" %s
TOC of the extracted CD
Track | Start | Length | Start sector | End sector
---------------------------------------------------------
1 | 0:00.00 | 5:50.42 | 0 | 26291
2 | 5:50.42 | 6:06.45 | 26292 | 53786
3 | 11:57.12 | 3:07.13 | 53787 | 67824
4 | 15:04.25 | 5:01.74 | 67825 | 90473
5 | 20:06.24 | 2:47.48 | 90474 | 103046
6 | 22:53.72 | 6:27.50 | 103047 | 132121
7 | 29:21.47 | 6:23.44 | 132122 | 160890
8 | 35:45.16 | 4:17.14 | 160891 | 180179
Track 1
Filename E:\!Rips\FUNK @ SOUL\Funkadelic - Hardcore Jollies (72435-39377-2-0)\01 – Comin' Round the Mountain.wav
Pre-gap length 0:00:02.00
Peak level 97.2 %
Track quality 100.0 %
Test CRC F1A8E5A5
Copy CRC F1A8E5A5
Accurately ripped (confidence 4) [EEF7D3C4]
Copy OK
Track 2
Filename E:\!Rips\FUNK @ SOUL\Funkadelic - Hardcore Jollies (72435-39377-2-0)\02 – Smokey.wav
Peak level 97.2 %
Track quality 99.9 %
Test CRC 1E6FBB5C
Copy CRC 1E6FBB5C
Accurately ripped (confidence 4) [2674BE24]
Copy OK
Track 3
Filename E:\!Rips\FUNK @ SOUL\Funkadelic - Hardcore Jollies (72435-39377-2-0)\03 – If You Got Funk, You Got Style.wav
Peak level 97.2 %
Track quality 100.0 %
Test CRC E46243DB
Copy CRC E46243DB
Accurately ripped (confidence 4) [E2248951]
Copy OK
Track 4
Filename E:\!Rips\FUNK @ SOUL\Funkadelic - Hardcore Jollies (72435-39377-2-0)\04 – Hardcore Jollies.wav
Pre-gap length 0:00:01.05
Peak level 97.2 %
Track quality 100.0 %
Test CRC C2C3A8CF
Copy CRC C2C3A8CF
Accurately ripped (confidence 4) [65E6AB69]
Copy OK
Track 5
Filename E:\!Rips\FUNK @ SOUL\Funkadelic - Hardcore Jollies (72435-39377-2-0)\05 – Soul Mate.wav
Pre-gap length 0:00:02.22
Peak level 97.2 %
Track quality 100.0 %
Test CRC 253B5996
Copy CRC 253B5996
Accurately ripped (confidence 4) [38582792]
Copy OK
Track 6
Filename E:\!Rips\FUNK @ SOUL\Funkadelic - Hardcore Jollies (72435-39377-2-0)\06 – Cosmic Slop.wav
Pre-gap length 0:00:01.84
Peak level 97.2 %
Track quality 100.0 %
Test CRC A5AD32E5
Copy CRC A5AD32E5
Accurately ripped (confidence 4) [7C4C8691]
Copy OK
Track 7
Filename E:\!Rips\FUNK @ SOUL\Funkadelic - Hardcore Jollies (72435-39377-2-0)\07 – You Scared the Lovin' Outta Me.wav
Peak level 97.2 %
Track quality 100.0 %
Test CRC 427D57F0
Copy CRC 427D57F0
Accurately ripped (confidence 4) [1A49A637]
Copy OK
Track 8
Filename E:\!Rips\FUNK @ SOUL\Funkadelic - Hardcore Jollies (72435-39377-2-0)\08 – Adolescent Funk.wav
Pre-gap length 0:00:01.02
Peak level 97.2 %
Track quality 100.0 %
Test CRC 761E310A
Copy CRC 761E310A
Accurately ripped (confidence 4) [1EB5C6DC]
Copy OK
All tracks accurately ripped
No errors occurred
End of status report
 
CUE
REM GENRE Funk
REM DATE 2002
REM DISCID 66096208
REM COMMENT "ExactAudioCopy v0.99pb5"
PERFORMER "Funkadelic"
TITLE "Hardcore Jollies"
FILE "01 – Comin' Round the Mountain.wav" WAVE
TRACK 01 AUDIO
TITLE "Comin' Round the Mountain"
PERFORMER "Funkadelic"
INDEX 01 00:00:00
FILE "02 – Smokey.wav" WAVE
TRACK 02 AUDIO
TITLE "Smokey"
PERFORMER "Funkadelic"
INDEX 01 00:00:00
FILE "03 – If You Got Funk, You Got Style.wav" WAVE
TRACK 03 AUDIO
TITLE "If You Got Funk, You Got Style"
PERFORMER "Funkadelic"
INDEX 01 00:00:00
TRACK 04 AUDIO
TITLE "Hardcore Jollies"
PERFORMER "Funkadelic"
INDEX 00 03:06:09
FILE "04 – Hardcore Jollies.wav" WAVE
INDEX 01 00:00:00
TRACK 05 AUDIO
TITLE "Soul Mate"
PERFORMER "Funkadelic"
INDEX 00 04:59:57
FILE "05 – Soul Mate.wav" WAVE
INDEX 01 00:00:00
TRACK 06 AUDIO
TITLE "Cosmic Slop"
PERFORMER "Funkadelic"
INDEX 00 02:45:60
FILE "06 – Cosmic Slop.wav" WAVE
INDEX 01 00:00:00
FILE "07 – You Scared the Lovin' Outta Me.wav" WAVE
TRACK 07 AUDIO
TITLE "You Scared the Lovin' Outta Me"
PERFORMER "Funkadelic"
INDEX 01 00:00:00
TRACK 08 AUDIO
TITLE "Adolescent Funk"
PERFORMER "Funkadelic"
INDEX 00 06:22:42
FILE "08 – Adolescent Funk.wav" WAVE
INDEX 01 00:00:00
 
Funkadelic - Standing On The Verge Of Getting It On (1974) [2005 remaster]

Продолжительность: 44:31
01. Funkadelic - Red Hot Mamma [4:56]
02. Funkadelic - Alice In My Fantasies [2:30]
03. Funkadelic - I'll Stay [7:19]
04. Funkadelic - Sexy Ways [3:08]
05. Funkadelic - Standing On The Verge Of Getting It On [5:09]
06. Funkadelic - Jimmy's Got A Little Bit Of Bitch In Him [2:33]
07. Funkadelic - Good Thoughts, Bad Thoughts [12:21]
08. Funkadelic - Vital Juices [3:15]
09. Funkadelic - Standing On The Verge Of Getting It On (Single Edit) [3:21]
 
log and sheet
 
Log
Exact Audio Copy V0.99 prebeta 4 from 23. January 2008
EAC extraction logfile from 29. July 2009, 16:21
Funkadelic / Standing On The Verge Of Getting It On
Used drive : TSSTcorpCDDVDW SN-S083B Adapter: 2 ID: 0
Read mode : Secure
Utilize accurate stream : Yes
Defeat audio cache : Yes
Make use of C2 pointers : No
Read offset correction : 6
Overread into Lead-In and Lead-Out : No
Fill up missing offset samples with silence : Yes
Delete leading and trailing silent blocks : No
Null samples used in CRC calculations : Yes
Used interface : Installed external ASPI interface
Gap handling : Appended to previous track
Used output format : User Defined Encoder
Selected bitrate : 768 kBit/s
Quality : High
Add ID3 tag : No
Command line compressor : C:\Program Files\Exact Audio Copy\FLAC\FLAC.EXE
Additional command line options : -8 -V -T "ARTIST=%a" -T "TITLE=%t" -T "ALBUM=%g" -T "DATE=%y" -T "TRACKNUMBER=%n" -T "TOTALTRACKS=%x" -T "GENRE=%m" -T "ALBUMARTIST=%v" -T "ALBUM ARTIST=%v" -T "COMMENT=EAC V0.99 prebeta 4, Secure Mode, Test & Copy, Accurat
TOC of the extracted CD
Track | Start | Length | Start sector | End sector
---------------------------------------------------------
1 | 0:00.00 | 4:56.13 | 0 | 22212
2 | 4:56.13 | 2:29.46 | 22213 | 33433
3 | 7:25.59 | 7:18.62 | 33434 | 66345
4 | 14:44.46 | 3:07.59 | 66346 | 80429
5 | 17:52.30 | 5:09.37 | 80430 | 103641
6 | 23:01.67 | 2:32.48 | 103642 | 115089
7 | 25:34.40 | 12:20.42 | 115090 | 170631
8 | 37:55.07 | 3:14.67 | 170632 | 185248
9 | 41:09.74 | 3:20.40 | 185249 | 200288
Track 1
Filename C:\Addis is killing my HDD\01 - Red Hot Mamma.wav
Pre-gap length 0:00:02.00
Peak level 97.1 %
Track quality 99.9 %
Test CRC D12659E7
Copy CRC D12659E7
Accurately ripped (confidence 1) [B3510DE1]
Copy OK
Track 2
Filename C:\Addis is killing my HDD\02 - Alice In My Fantasies.wav
Peak level 97.1 %
Track quality 100.0 %
Test CRC 5D3D1EF9
Copy CRC 5D3D1EF9
Accurately ripped (confidence 1) [398F3A9C]
Copy OK
Track 3
Filename C:\Addis is killing my HDD\03 - I'll Stay.wav
Peak level 97.1 %
Track quality 100.0 %
Test CRC CEAB3C29
Copy CRC CEAB3C29
Accurately ripped (confidence 1) [A4F08FEF]
Copy OK
Track 4
Filename C:\Addis is killing my HDD\04 - Sexy Ways.wav
Peak level 97.1 %
Track quality 100.0 %
Test CRC 2D02DABE
Copy CRC 2D02DABE
Accurately ripped (confidence 1) [5740E1C4]
Copy OK
Track 5
Filename C:\Addis is killing my HDD\05 - Standing On The Verge Of Getting It On.wav
Peak level 97.1 %
Track quality 99.9 %
Test CRC 89274F7A
Copy CRC 89274F7A
Accurately ripped (confidence 1) [32CFA88F]
Copy OK
Track 6
Filename C:\Addis is killing my HDD\06 - Jimmy's Got A Little Bit Of Bitch In Him.wav
Peak level 97.1 %
Track quality 100.0 %
Test CRC E96C27A3
Copy CRC E96C27A3
Accurately ripped (confidence 1) [819638A9]
Copy OK
Track 7
Filename C:\Addis is killing my HDD\07 - Good Thoughts, Bad Thoughts.wav
Peak level 92.1 %
Track quality 100.0 %
Test CRC 8A5B1F9A
Copy CRC 8A5B1F9A
Accurately ripped (confidence 1) [5AF1E26F]
Copy OK
Track 8
Filename C:\Addis is killing my HDD\08 - Vital Juices.wav
Peak level 91.7 %
Track quality 100.0 %
Test CRC 94EE7415
Copy CRC 94EE7415
Accurately ripped (confidence 1) [3F5BC1D9]
Copy OK
Track 9
Filename C:\Addis is killing my HDD\09 - Standing On The Verge Of Getting It On (Single Edit).wav
Peak level 93.1 %
Track quality 100.0 %
Test CRC 401F4EEF
Copy CRC 401F4EEF
Accurately ripped (confidence 1) [0F9DADAA]
Copy OK
All tracks accurately ripped
No errors occurred
End of status report
 
CUE
REM GENRE Funk
REM DATE 1974
REM DISCID 840A6E09
REM COMMENT "ExactAudioCopy v0.99pb4"
PERFORMER "Funkadelic"
TITLE "Standing On The Verge Of Getting It On"
FILE "01 - Red Hot Mamma.wav" WAVE
TRACK 01 AUDIO
TITLE "Red Hot Mamma"
PERFORMER "Funkadelic"
INDEX 01 00:00:00
FILE "02 - Alice In My Fantasies.wav" WAVE
TRACK 02 AUDIO
TITLE "Alice In My Fantasies"
PERFORMER "Funkadelic"
INDEX 01 00:00:00
FILE "03 - I'll Stay.wav" WAVE
TRACK 03 AUDIO
TITLE "I'll Stay"
PERFORMER "Funkadelic"
INDEX 01 00:00:00
FILE "04 - Sexy Ways.wav" WAVE
TRACK 04 AUDIO
TITLE "Sexy Ways"
PERFORMER "Funkadelic"
INDEX 01 00:00:00
FILE "05 - Standing On The Verge Of Getting It On.wav" WAVE
TRACK 05 AUDIO
TITLE "Standing On The Verge Of Getting It On"
PERFORMER "Funkadelic"
INDEX 01 00:00:00
FILE "06 - Jimmy's Got A Little Bit Of Bitch In Him.wav" WAVE
TRACK 06 AUDIO
TITLE "Jimmy's Got A Little Bit Of Bitch In Him"
PERFORMER "Funkadelic"
INDEX 01 00:00:00
FILE "07 - Good Thoughts, Bad Thoughts.wav" WAVE
TRACK 07 AUDIO
TITLE "Good Thoughts, Bad Thoughts"
PERFORMER "Funkadelic"
INDEX 01 00:00:00
FILE "08 - Vital Juices.wav" WAVE
TRACK 08 AUDIO
TITLE "Vital Juices "
PERFORMER "Funkadelic"
INDEX 01 00:00:00
FILE "09 - Standing On The Verge Of Getting It On (Single Edit).wav" WAVE
TRACK 09 AUDIO
TITLE "Standing On The Verge Of Getting It On (Single Edit)"
PERFORMER "Funkadelic"
INDEX 01 00:00:00
 
Funkadelic - Uncle Jam Wants You [Charly Groove - CDGR 103] (1993)

Продолжительность: 41:46
01. Funkadelic - Freak Of The Week [5:34]
02. Funkadelic - (Not Just) Knee Deep [15:21]
03. Funkadelic - Uncle Jam [10:26]
04. Funkadelic - Field Maneuvers [2:26]
05. Funkadelic - Holly Wants To Go To California [4:26]
06. Funkadelic - Foot Soldiers (Star-Spangled Funky) [3:33]
 
log and sheet
 
Log
Exact Audio Copy V1.0 beta 4 from 7. December 2014
EAC extraction logfile from 8. May 2015, 19:33
Funkadelic / Uncle Jam Wants You
Used drive : TSSTcorpCDDVDW SH-224DB Adapter: 1 ID: 0
Read mode : Secure
Utilize accurate stream : Yes
Defeat audio cache : Yes
Make use of C2 pointers : No
Read offset correction : 6
Overread into Lead-In and Lead-Out : No
Fill up missing offset samples with silence : Yes
Delete leading and trailing silent blocks : No
Null samples used in CRC calculations : Yes
Used interface : Native Win32 interface for Win NT & 2000
Gap handling : Appended to previous track
Used output format : User Defined Encoder
Selected bitrate : 896 kBit/s
Quality : High
Add ID3 tag : No
Command line compressor : C:\Program Files (x86)\Exact Audio Copy\FLAC\FLAC.EXE
Additional command line options : -8 -V -T "ARTIST=%artist%" -T "TITLE=%title%" -T "ALBUM=%albumtitle%" -T "DATE=%year%" -T "TRACKNUMBER=%tracknr%" -T "TOTALTRACKS=%numtracks%" -T "GENRE=%genre%" -T "ALBUMARTIST=%albumartist%" -T "ALBUM ARTIST=%albumartist%" -T "COMMENT=EAC Secure Mode, Test & Copy, AccurateRip, FLAC -8" %source%
TOC of the extracted CD
Track | Start | Length | Start sector | End sector
---------------------------------------------------------
1 | 0:00.00 | 5:34.05 | 0 | 25054
2 | 5:34.05 | 15:21.30 | 25055 | 94159
3 | 20:55.35 | 10:25.58 | 94160 | 141092
4 | 31:21.18 | 2:26.35 | 141093 | 152077
5 | 33:47.53 | 4:25.47 | 152078 | 171999
6 | 38:13.25 | 3:32.43 | 172000 | 187942
Track 1
Filename E:\Musica\Funkadelic\Funkadelic - Uncle Jam Wants You (1979) [FLAC]\01 - Freak Of The Week.wav
Pre-gap length 0:00:02.00
Peak level 98.0 %
Extraction speed 1.8 X
Track quality 100.0 %
Test CRC 2B9926D9
Copy CRC 2B9926D9
Accurately ripped (confidence 3) [9AB54CBF] (AR v2)
Copy OK
Track 2
Filename E:\Musica\Funkadelic\Funkadelic - Uncle Jam Wants You (1979) [FLAC]\02 - (Not Just) Knee Deep.wav
Pre-gap length 0:00:01.50
Peak level 98.0 %
Extraction speed 2.4 X
Track quality 100.0 %
Test CRC 8FA2F0CD
Copy CRC 8FA2F0CD
Accurately ripped (confidence 3) [30740072] (AR v2)
Copy OK
Track 3
Filename E:\Musica\Funkadelic\Funkadelic - Uncle Jam Wants You (1979) [FLAC]\03 - Uncle Jam.wav
Pre-gap length 0:00:01.42
Peak level 98.0 %
Extraction speed 2.6 X
Track quality 99.9 %
Test CRC 1F57ECB6
Copy CRC 1F57ECB6
Accurately ripped (confidence 3) [34A8D955] (AR v2)
Copy OK
Track 4
Filename E:\Musica\Funkadelic\Funkadelic - Uncle Jam Wants You (1979) [FLAC]\04 - Field Maneuvers.wav
Pre-gap length 0:00:01.25
Peak level 98.0 %
Extraction speed 2.5 X
Track quality 100.0 %
Test CRC 6F66ED55
Copy CRC 6F66ED55
Accurately ripped (confidence 3) [E1454D71] (AR v2)
Copy OK
Track 5
Filename E:\Musica\Funkadelic\Funkadelic - Uncle Jam Wants You (1979) [FLAC]\05 - Holly Wants To Go To California.wav
Pre-gap length 0:00:02.00
Peak level 74.1 %
Extraction speed 2.9 X
Track quality 100.0 %
Test CRC D754AD1D
Copy CRC D754AD1D
Accurately ripped (confidence 3) [5C702054] (AR v2)
Copy OK
Track 6
Filename E:\Musica\Funkadelic\Funkadelic - Uncle Jam Wants You (1979) [FLAC]\06 - Foot Soldiers (Star-Spangled Funky).wav
Pre-gap length 0:00:01.10
Peak level 98.0 %
Extraction speed 3.0 X
Track quality 100.0 %
Test CRC B6F6A3F1
Copy CRC B6F6A3F1
Accurately ripped (confidence 3) [DB7655B7] (AR v2)
Copy OK
All tracks accurately ripped
No errors occurred
End of status report
---- CUETools DB Plugin V2.1.4
[CTDB TOCID: 4V_qBgsFhSHTb9SYu0gDe7JAyXc-] found
Submit result: 4V_qBgsFhSHTb9SYu0gDe7JAyXc- has been confirmed
Track | CTDB Status
1 | (6/6) Accurately ripped
2 | (6/6) Accurately ripped
3 | (6/6) Accurately ripped
4 | (6/6) Accurately ripped
5 | (5/6) Accurately ripped
6 | (6/6) Accurately ripped
==== Log checksum 0FF25D2B91B0B995A3FB41A0076D6F8D9111243180B8E9938143A2DC4D0D0555 ====
 
CUE
REM GENRE Funk
REM DATE 1979
REM DISCID 5009C906
REM COMMENT "ExactAudioCopy v1.0b4"
PERFORMER "Funkadelic"
TITLE "Uncle Jam Wants You"
FILE "01 - Freak Of The Week.wav" WAVE
TRACK 01 AUDIO
TITLE "Freak Of The Week"
PERFORMER "Funkadelic"
INDEX 01 00:00:00
TRACK 02 AUDIO
TITLE "(Not Just) Knee Deep"
PERFORMER "Funkadelic"
INDEX 00 05:32:30
FILE "02 - (Not Just) Knee Deep.wav" WAVE
INDEX 01 00:00:00
TRACK 03 AUDIO
TITLE "Uncle Jam"
PERFORMER "Funkadelic"
INDEX 00 15:19:63
FILE "03 - Uncle Jam.wav" WAVE
INDEX 01 00:00:00
TRACK 04 AUDIO
TITLE "Field Maneuvers"
PERFORMER "Funkadelic"
INDEX 00 10:24:33
FILE "04 - Field Maneuvers.wav" WAVE
INDEX 01 00:00:00
TRACK 05 AUDIO
TITLE "Holly Wants To Go To California"
PERFORMER "Funkadelic"
INDEX 00 02:24:35
FILE "05 - Holly Wants To Go To California.wav" WAVE
INDEX 01 00:00:00
TRACK 06 AUDIO
TITLE "Foot Soldiers (Star-Spangled Funky)"
PERFORMER "Funkadelic"
INDEX 00 04:24:37
FILE "06 - Foot Soldiers (Star-Spangled Funky).wav" WAVE
INDEX 01 00:00:00
 
Funkadelic - Standing On The Verge Of Getting It On (CDSEWM 040) 1974 (remastered 1991)
Продолжительность: 37 min 50 sec
1. Funkadelic - Red Hot Mama (4:55)
2. Funkadelic - Alice In My Fantasies (2:29)
3. Funkadelic - I'll Stay (7:18)
4. Funkadelic - Sexy Ways (3:08)
5. Funkadelic - Standing On The Verge Of Getting It On (5:10)
6. Funkadelic - Jimmy's Got A Little Bit Of Bitch In Him (2:33)
7. Funkadelic - Good Thoughts, Bad Thoughts (12:17)
 
Log EAC
Exact Audio Copy V0.99 prebeta 5 from 4. May 2009
EAC extraction logfile from 8. March 2010, 0:14
Funkadelic / Standing On The Verge Of Getting It On
Used drive : ASUS CB-5216A Adapter: 0 ID: 1
Read mode : Secure
Utilize accurate stream : Yes
Defeat audio cache : Yes
Make use of C2 pointers : No
Read offset correction : 6
Overread into Lead-In and Lead-Out : No
Fill up missing offset samples with silence : Yes
Delete leading and trailing silent blocks : No
Null samples used in CRC calculations : Yes
Used interface : Native Win32 interface for Win NT & 2000
Gap handling : Appended to previous track
Used output format : User Defined Encoder
Selected bitrate : 320 kBit/s
Quality : High
Add ID3 tag : No
Command line compressor : C:\Program Files\FLAC\flac.exe
Additional command line options : -5 -V -T "ARTIST=%a" -T "TITLE=%t" -T "ALBUM=%g" -T "DATE=%y" -T "TRACKNUMBER=%n" -T "GENRE=%m" -T "COMMENT=Ripped By andygrakoff aka yetiisyou" %s
TOC of the extracted CD
Track | Start | Length | Start sector | End sector
---------------------------------------------------------
1 | 0:00.00 | 4:55.63 | 0 | 22187
2 | 4:55.63 | 2:29.70 | 22188 | 33432
3 | 7:25.58 | 7:18.67 | 33433 | 66349
4 | 14:44.50 | 3:08.15 | 66350 | 80464
5 | 17:52.65 | 5:10.10 | 80465 | 103724
6 | 23:03.00 | 2:33.43 | 103725 | 115242
7 | 25:36.43 | 12:17.27 | 115243 | 170544
Track 1
Filename E:\!Rips\FUNK @ SOUL\Funkadelic - Standing On The Verge Of Getting It On (CDSEWM 040)\01 – Red Hot Mama.wav
Pre-gap length 0:00:02.00
Peak level 98.2 %
Track quality 99.9 %
Test CRC 3369AF3C
Copy CRC 3369AF3C
Accurately ripped (confidence 3) [CF9A149D]
Copy OK
Track 2
Filename E:\!Rips\FUNK @ SOUL\Funkadelic - Standing On The Verge Of Getting It On (CDSEWM 040)\02 – Alice In My Fantasies.wav
Pre-gap length 0:00:01.73
Peak level 100.0 %
Track quality 99.5 %
Test CRC 1607E424
Copy CRC 1607E424
Accurately ripped (confidence 3) [785BDE3A]
Copy OK
Track 3
Filename E:\!Rips\FUNK @ SOUL\Funkadelic - Standing On The Verge Of Getting It On (CDSEWM 040)\03 – I'll Stay.wav
Pre-gap length 0:00:02.26
Peak level 100.0 %
Track quality 99.9 %
Test CRC 2EE0F72F
Copy CRC 2EE0F72F
Accurately ripped (confidence 3) [9889D547]
Copy OK
Track 4
Filename E:\!Rips\FUNK @ SOUL\Funkadelic - Standing On The Verge Of Getting It On (CDSEWM 040)\04 – Sexy Ways.wav
Pre-gap length 0:00:01.96
Peak level 98.0 %
Track quality 99.9 %
Test CRC C11EB0F3
Copy CRC C11EB0F3
Accurately ripped (confidence 2) [7DF13810]
Copy OK
Track 5
Filename E:\!Rips\FUNK @ SOUL\Funkadelic - Standing On The Verge Of Getting It On (CDSEWM 040)\05 – Standing On The Verge Of Getting It On.wav
Pre-gap length 0:00:03.13
Peak level 99.2 %
Track quality 99.7 %
Test CRC 2E104BB5
Copy CRC 2E104BB5
Accurately ripped (confidence 3) [8AA0CC0A]
Copy OK
Track 6
Filename E:\!Rips\FUNK @ SOUL\Funkadelic - Standing On The Verge Of Getting It On (CDSEWM 040)\06 – Jimmy's Got A Little Bit Of Bitch In Him.wav
Pre-gap length 0:00:01.76
Peak level 99.5 %
Track quality 100.0 %
Test CRC 12BCD29E
Copy CRC 12BCD29E
Accurately ripped (confidence 3) [E741BDB6]
Copy OK
Track 7
Filename E:\!Rips\FUNK @ SOUL\Funkadelic - Standing On The Verge Of Getting It On (CDSEWM 040)\07 – Good Thoughts, Bad Thoughts.wav
Pre-gap length 0:00:02.33
Peak level 84.7 %
Track quality 99.9 %
Test CRC 6C0915CE
Copy CRC 6C0915CE
Accurately ripped (confidence 2) [C1326AB8]
Copy OK
All tracks accurately ripped
No errors occurred
End of status report
 
CUE
REM GENRE Funk
REM DATE 1974
REM DISCID 6708E107
REM COMMENT "ExactAudioCopy v0.99pb5"
PERFORMER "Funkadelic"
TITLE "Standing On The Verge Of Getting It On"
FILE "01 – Red Hot Mama.wav" WAVE
TRACK 01 AUDIO
TITLE "Red Hot Mama"
PERFORMER "Funkadelic"
INDEX 01 00:00:00
TRACK 02 AUDIO
TITLE "Alice In My Fantasies"
PERFORMER "Funkadelic"
INDEX 00 04:54:08
FILE "02 – Alice In My Fantasies.wav" WAVE
INDEX 01 00:00:00
TRACK 03 AUDIO
TITLE "I'll Stay"
PERFORMER "Funkadelic"
INDEX 00 02:27:50
FILE "03 – I'll Stay.wav" WAVE
INDEX 01 00:00:00
TRACK 04 AUDIO
TITLE "Sexy Ways"
PERFORMER "Funkadelic"
INDEX 00 07:16:70
FILE "04 – Sexy Ways.wav" WAVE
INDEX 01 00:00:00
TRACK 05 AUDIO
TITLE "Standing On The Verge Of Getting It On"
PERFORMER "Funkadelic"
INDEX 00 03:05:05
FILE "05 – Standing On The Verge Of Getting It On.wav" WAVE
INDEX 01 00:00:00
TRACK 06 AUDIO
TITLE "Jimmy's Got A Little Bit Of Bitch In Him"
PERFORMER "Funkadelic"
INDEX 00 05:08:28
FILE "06 – Jimmy's Got A Little Bit Of Bitch In Him.wav" WAVE
INDEX 01 00:00:00
TRACK 07 AUDIO
TITLE "Good Thoughts, Bad Thoughts"
PERFORMER "Funkadelic"
INDEX 00 02:31:18
FILE "07 – Good Thoughts, Bad Thoughts.wav" WAVE
INDEX 01 00:00:00
 
Funkadelic - The Electric Spanking Of War Babies - 1981 (SNAP 215 CD) (remastered 2003)
Продолжительность: 44 min 02 sec
1. Funkadelic - Electric Spanking Of War Babies (8:40)
2. Funkadelic - Electro-Cuties (6:12)
3. Funkadelic - Funk Gets Stronger (Part 1) (6:40)
4. Funkadelic - Brettino's Bounce (3:40)
5. Funkadelic - Funk Gets Stronger (Killer Millimeter Longer Version), She Loves You (4:42)
6. Funkadelic - Shockwaves (5:08)
7. Funkadelic - Oh, I (4:53)
8. Funkadelic - Icka Prick (4:07)
 
Log EAC
Exact Audio Copy V0.99 prebeta 5 from 4. May 2009
EAC extraction logfile from 8. March 2010, 14:15
Funkadelic / The Electric Spanking Of War Babies
Used drive : ASUS DRW-1608P2 Adapter: 0 ID: 0
Read mode : Secure
Utilize accurate stream : Yes
Defeat audio cache : Yes
Make use of C2 pointers : No
Read offset correction : 48
Overread into Lead-In and Lead-Out : No
Fill up missing offset samples with silence : Yes
Delete leading and trailing silent blocks : No
Null samples used in CRC calculations : Yes
Used interface : Native Win32 interface for Win NT & 2000
Gap handling : Appended to previous track
Used output format : User Defined Encoder
Selected bitrate : 320 kBit/s
Quality : High
Add ID3 tag : No
Command line compressor : C:\Program Files\FLAC\flac.exe
Additional command line options : -5 -V -T "ARTIST=%a" -T "TITLE=%t" -T "ALBUM=%g" -T "DATE=%y" -T "TRACKNUMBER=%n" -T "GENRE=%m" -T "COMMENT=Ripped By andygrakoff aka yetiisyou" %s
TOC of the extracted CD
Track | Start | Length | Start sector | End sector
---------------------------------------------------------
1 | 0:00.00 | 8:40.08 | 0 | 39007
2 | 8:40.08 | 6:12.05 | 39008 | 66912
3 | 14:52.13 | 6:40.67 | 66913 | 96979
4 | 21:33.05 | 3:40.35 | 96980 | 113514
5 | 25:13.40 | 4:42.65 | 113515 | 134729
6 | 29:56.30 | 5:08.13 | 134730 | 157842
7 | 35:04.43 | 4:53.50 | 157843 | 179867
8 | 39:58.18 | 4:07.60 | 179868 | 198452
Track 1
Filename E:\!Rips\FUNK @ SOUL\Funkadelic - The Electric Spanking Of War Babies (SNAP 215 CD)\01 – Electric Spanking Of War Babies.wav
Pre-gap length 0:00:02.00
Peak level 98.0 %
Track quality 100.0 %
Test CRC D678C94E
Copy CRC D678C94E
Cannot be verified as accurate (confidence 4) [A2A77A3E], AccurateRip returned [D5E0E1B0]
Copy OK
Track 2
Filename E:\!Rips\FUNK @ SOUL\Funkadelic - The Electric Spanking Of War Babies (SNAP 215 CD)\02 – Electro-Cuties.wav
Pre-gap length 0:00:01.33
Peak level 98.0 %
Track quality 100.0 %
Test CRC C3359BB4
Copy CRC C3359BB4
Cannot be verified as accurate (confidence 4) [104F51A5], AccurateRip returned [7C26E9AF]
Copy OK
Track 3
Filename E:\!Rips\FUNK @ SOUL\Funkadelic - The Electric Spanking Of War Babies (SNAP 215 CD)\03 – Funk Gets Stronger (Part 1).wav
Pre-gap length 0:00:01.66
Peak level 98.0 %
Track quality 100.0 %
Test CRC B729642B
Copy CRC B729642B
Cannot be verified as accurate (confidence 4) [FF66FCB1], AccurateRip returned [F71C3F4F]
Copy OK
Track 4
Filename E:\!Rips\FUNK @ SOUL\Funkadelic - The Electric Spanking Of War Babies (SNAP 215 CD)\04 – Brettino's Bounce.wav
Pre-gap length 0:00:03.00
Peak level 98.0 %
Track quality 99.9 %
Test CRC E8D823F0
Copy CRC E8D823F0
Cannot be verified as accurate (confidence 4) [5BE91281], AccurateRip returned [D4A9B8E7]
Copy OK
Track 5
Filename E:\!Rips\FUNK @ SOUL\Funkadelic - The Electric Spanking Of War Babies (SNAP 215 CD)\05 – Funk Gets Stronger (Killer Millimeter Longer Version), She Loves You.wav
Pre-gap length 0:00:02.00
Peak level 98.1 %
Track quality 100.0 %
Test CRC DE03395D
Copy CRC DE03395D
Cannot be verified as accurate (confidence 4) [FA8DA361], AccurateRip returned [2A87BE61]
Copy OK
Track 6
Filename E:\!Rips\FUNK @ SOUL\Funkadelic - The Electric Spanking Of War Babies (SNAP 215 CD)\06 – Shockwaves.wav
Pre-gap length 0:00:01.00
Peak level 98.0 %
Track quality 100.0 %
Test CRC 472ECA8F
Copy CRC 472ECA8F
Cannot be verified as accurate (confidence 4) [96F3C811], AccurateRip returned [12B3A01F]
Copy OK
Track 7
Filename E:\!Rips\FUNK @ SOUL\Funkadelic - The Electric Spanking Of War Babies (SNAP 215 CD)\07 – Oh, I.wav
Pre-gap length 0:00:01.66
Peak level 98.0 %
Track quality 100.0 %
Test CRC F1D2E592
Copy CRC F1D2E592
Cannot be verified as accurate (confidence 4) [B0CE2475], AccurateRip returned [B0BF956B]
Copy OK
Track 8
Filename E:\!Rips\FUNK @ SOUL\Funkadelic - The Electric Spanking Of War Babies (SNAP 215 CD)\08 – Icka Prick.wav
Pre-gap length 0:00:01.66
Peak level 98.0 %
Track quality 100.0 %
Test CRC 2A813E23
Copy CRC 2A813E23
Cannot be verified as accurate (confidence 4) [11A0AF73], AccurateRip returned [EF4C96CB]
Copy OK
No tracks could be verified as accurate
You may have a different pressing from the one(s) in the database
No errors occurred
End of status report
 
CUE
REM GENRE Funk
REM DATE 1981
REM DISCID 650A5608
REM COMMENT "ExactAudioCopy v0.99pb5"
PERFORMER "Funkadelic"
TITLE "The Electric Spanking Of War Babies"
FILE "01 – Electric Spanking Of War Babies.wav" WAVE
TRACK 01 AUDIO
TITLE "Electric Spanking Of War Babies"
PERFORMER "Funkadelic"
INDEX 01 00:00:00
TRACK 02 AUDIO
TITLE "Electro-Cuties"
PERFORMER "Funkadelic"
INDEX 00 08:38:58
FILE "02 – Electro-Cuties.wav" WAVE
INDEX 01 00:00:00
TRACK 03 AUDIO
TITLE "Funk Gets Stronger (Part 1)"
PERFORMER "Funkadelic"
INDEX 00 06:10:30
FILE "03 – Funk Gets Stronger (Part 1).wav" WAVE
INDEX 01 00:00:00
TRACK 04 AUDIO
TITLE "Brettino's Bounce"
PERFORMER "Funkadelic"
INDEX 00 06:37:67
FILE "04 – Brettino's Bounce.wav" WAVE
INDEX 01 00:00:00
TRACK 05 AUDIO
TITLE "Funk Gets Stronger (Killer Millimeter Longer Version), She Loves You"
PERFORMER "Funkadelic"
INDEX 00 03:38:35
FILE "05 – Funk Gets Stronger (Killer Millimeter Longer Version), She Loves You.wav" WAVE
INDEX 01 00:00:00
TRACK 06 AUDIO
TITLE "Shockwaves"
PERFORMER "Funkadelic"
INDEX 00 04:41:65
FILE "06 – Shockwaves.wav" WAVE
INDEX 01 00:00:00
TRACK 07 AUDIO
TITLE "Oh, I"
PERFORMER "Funkadelic"
INDEX 00 05:06:38
FILE "07 – Oh, I.wav" WAVE
INDEX 01 00:00:00
TRACK 08 AUDIO
TITLE "Icka Prick"
PERFORMER "Funkadelic"
INDEX 00 04:52:00
FILE "08 – Icka Prick.wav" WAVE
INDEX 01 00:00:00
Приватный:
Нет (DHT включён)
Размер:
3.19 Гб (3,423,160,466 байт) » файлов: 158
Участники:
0 раздают, 0 качают (0 участников всего)
Внешние участники:
11 раздают, 4 качают (15 участников всего) [ Обновить ]
Никого нет на раздаче - пишите личное сообщение M0p94ok
No seeders - write personal message to M0p94ok
03:04
39
Нет комментариев. Ваш будет первым!