Поиск

(R&B, Black Gospel) Sam Cooke - Keep Movin' On - 2001, FLAC (tracks+.cue), lossless

(R&B, Black Gospel) Sam Cooke - Keep Movin' On - 2001, FLAC (tracks+.cue), lossless
Треклист:
Sam Cooke - Keep Movin' On
Жанр: R&B, Black Gospel
Год выпуска диска: 2001
Производитель диска: ABKCO Records
Аудио кодек: FLAC
Тип рипа: tracks+.cue
Битрейт аудио: lossless
Продолжительность: 62:48
Трэклист:
01.Good News
02.Rome (Wasn't Built in a Day)
03.Meet Me at Mary's Place
04.Basin Street Blues
05.Cousin of Mine
06.Tennessee Waltz
07.Falling in Love
08.When a Boy Falls in Love
09.Good Times
10.Shake
11.Yeah Man
12.It's Got the Whole World Shakin'
13.The Riddle Song
14.I'm Just a Country Boy [#]
15.Try a Little Love
16.There'll Be No Second Time
17.Another Saturday Night
18.Sugar Dumpling
19.That's Where It's At
20.You're Nobody 'Til Somebody Loves You
21.(Somebody) Ease My Troublin' Mind
22.A Change Is Gonna Come
23.Keep Movin' On [#]
Доп. информация: Об альбоме на allmusic:
http://allmusic.com/cg/amg.dll?p=amg&sql=10:wvfexqu0ldfe
(дата релиза: Jan 15, 2002)
Источник: найдено в сети…спасибо : gruzov
 
Отчёт EAC
Exact Audio Copy V0.99 prebeta 5 from 4. May 2009
Archivo Log de extracciones desde 7. Marzo 2010, 23:34
Sam Cooke / Keep Movin' On
Usar unidad : PLEXTOR CD-R PX-W1610A Adapter: 0 ID: 2
Modo de Lectura : Seguro
Utilizar Corriente Exacta : Sн
Descartar Audio cachй : Sн
Utilizar los punteros C2 : Sн
Correcciуn de Desplazamiento de Lectura : 99
Sobreleer tanto en Lead-In como en Lead-Out : No
Rellenar las muestras faltantes con silencios : Sн
Eliminar silencios inicial y final : No
Se han usado muestras nulas en los cбlculos CRC : Sн
Interfaz usada : Interfaz propio de Win32 para Windowns NT y 2000
Gestiуn de Gaps : No detectada, pero aсadida a la pista previa
Formato de Salida utilizado : Compresor definido por el usuario
Bitrate seleccionado : 1024 kBit/s
Calidad : Alta
Aсadir Etiqueta ID3 : No
Compresor de linea de comandos : C:\Archivos de programa\Exact Audio Copy\Flac\flac.exe
Opciones adicionales en lнnea de comandos : -V -8 -T "artist=%a" -T "title=%t" -T "album=%g" -T "date=%y" -T "tracknumber=%n" -T "genre=%m" %s
TOC del CD extraido
Pista | Inicio | Duraciуn | Sector inicial | Sector final
-------------------------------------------------------------
1 | 0:00.00 | 2:31.02 | 0 | 11326
2 | 2:31.02 | 2:36.13 | 11327 | 23039
3 | 5:07.15 | 2:43.12 | 23040 | 35276
4 | 7:50.27 | 2:49.48 | 35277 | 47999
5 | 10:40.00 | 2:29.64 | 48000 | 59238
6 | 13:09.64 | 3:13.28 | 59239 | 73741
7 | 16:23.17 | 2:46.33 | 73742 | 86224
8 | 19:09.50 | 2:35.30 | 86225 | 97879
9 | 21:45.05 | 2:28.02 | 97880 | 108981
10 | 24:13.07 | 2:52.08 | 108982 | 121889
11 | 27:05.15 | 2:33.37 | 121890 | 133401
12 | 29:38.52 | 2:46.00 | 133402 | 145851
13 | 32:24.52 | 2:33.35 | 145852 | 157361
14 | 34:58.12 | 2:29.70 | 157362 | 168606
15 | 37:28.07 | 2:39.70 | 168607 | 180601
16 | 40:08.02 | 3:02.63 | 180602 | 194314
17 | 43:10.65 | 2:42.12 | 194315 | 206476
18 | 45:53.02 | 2:45.65 | 206477 | 218916
19 | 48:38.67 | 2:37.73 | 218917 | 230764
20 | 51:16.65 | 3:02.12 | 230765 | 244426
21 | 54:19.02 | 2:55.63 | 244427 | 257614
22 | 57:14.65 | 3:14.47 | 257615 | 272211
23 | 60:29.37 | 2:20.03 | 272212 | 282714
Pista 1
Nombre de Archivo I:\Downloads\Sam Cooke - Keep movin' on - ABKCO 2001 - eac, flac, covers\Sam Cooke\Keep Movin' On\01 - Good News (Sam Cooke) (1963).wav
Nivel Pico 88.4 %
Calidad de Pista 100.0 %
Copiar CRC 4FF3660A
Extracciуn precisa (nivel de confianza 5) [14064BB7]
Copia OK
Pista 2
Nombre de Archivo I:\Downloads\Sam Cooke - Keep movin' on - ABKCO 2001 - eac, flac, covers\Sam Cooke\Keep Movin' On\02 - Rome (Wasn't Built In A Day) (Sam Cooke-Prudhomme) (1964).wav
Nivel Pico 96.5 %
Calidad de Pista 99.8 %
Copiar CRC 639E1B4F
Extracciуn precisa (nivel de confianza 6) [281FCCA2]
Copia OK
Pista 3
Nombre de Archivo I:\Downloads\Sam Cooke - Keep movin' on - ABKCO 2001 - eac, flac, covers\Sam Cooke\Keep Movin' On\03 - Meet Me At Mary's Place (Sam Cooke) (1964).wav
Nivel Pico 97.3 %
Calidad de Pista 100.0 %
Copiar CRC 3AD1A7B8
Extracciуn precisa (nivel de confianza 5) [679CF4DF]
Copia OK
Pista 4
Nombre de Archivo I:\Downloads\Sam Cooke - Keep movin' on - ABKCO 2001 - eac, flac, covers\Sam Cooke\Keep Movin' On\04 - Basin Street Blues (Spencer Williams) 81963).wav
Nivel Pico 90.5 %
Calidad de Pista 100.0 %
Copiar CRC 0C769BB6
Extracciуn precisa (nivel de confianza 5) [1785E044]
Copia OK
Pista 5
Nombre de Archivo I:\Downloads\Sam Cooke - Keep movin' on - ABKCO 2001 - eac, flac, covers\Sam Cooke\Keep Movin' On\05 - Cousin Of Mine (Sam Cooke) (1964).wav
Nivel Pico 98.5 %
Calidad de Pista 100.0 %
Copiar CRC EC822A08
Extracciуn precisa (nivel de confianza 5) [12CC3893]
Copia OK
Pista 6
Nombre de Archivo I:\Downloads\Sam Cooke - Keep movin' on - ABKCO 2001 - eac, flac, covers\Sam Cooke\Keep Movin' On\06 - Tennessee Waltz (Peewee King-Redd Stewart) (1964).wav
Nivel Pico 94.3 %
Calidad de Pista 100.0 %
Copiar CRC DA819F17
Extracciуn precisa (nivel de confianza 4) [6BC537D3]
Copia OK
Pista 7
Nombre de Archivo I:\Downloads\Sam Cooke - Keep movin' on - ABKCO 2001 - eac, flac, covers\Sam Cooke\Keep Movin' On\07 - Falling In Love (Harold Battiste) (1964).wav
Nivel Pico 91.0 %
Calidad de Pista 100.0 %
Copiar CRC EC7921BA
Extracciуn precisa (nivel de confianza 5) [2E85A2FF]
Copia OK
Pista 8
Nombre de Archivo I:\Downloads\Sam Cooke - Keep movin' on - ABKCO 2001 - eac, flac, covers\Sam Cooke\Keep Movin' On\08 - When A Boy Falls In Love (Sam Cooke-Clinton Levert) (1959).wav
Nivel Pico 98.2 %
Calidad de Pista 100.0 %
Copiar CRC BDCF9770
Extracciуn precisa (nivel de confianza 5) [FF50F8CE]
Copia OK
Pista 9
Nombre de Archivo I:\Downloads\Sam Cooke - Keep movin' on - ABKCO 2001 - eac, flac, covers\Sam Cooke\Keep Movin' On\09 - Good Times (Sam Cooke) (1964).wav
Nivel Pico 99.8 %
Calidad de Pista 100.0 %
Copiar CRC 7B03526F
Extracciуn precisa (nivel de confianza 4) [ED709BF6]
Copia OK
Pista 10
Nombre de Archivo I:\Downloads\Sam Cooke - Keep movin' on - ABKCO 2001 - eac, flac, covers\Sam Cooke\Keep Movin' On\10 - Shake (Sam Cooke) (1964).wav
Nivel Pico 96.1 %
Calidad de Pista 99.8 %
Copiar CRC 22997AFC
Extracciуn precisa (nivel de confianza 4) [D4CCD85A]
Copia OK
Pista 11
Nombre de Archivo I:\Downloads\Sam Cooke - Keep movin' on - ABKCO 2001 - eac, flac, covers\Sam Cooke\Keep Movin' On\11 - Yeah Man (Sam Cooke) (1964).wav
Nivel Pico 98.1 %
Calidad de Pista 100.0 %
Copiar CRC 7AB36422
Extracciуn precisa (nivel de confianza 5) [6218175D]
Copia OK
Pista 12
Nombre de Archivo I:\Downloads\Sam Cooke - Keep movin' on - ABKCO 2001 - eac, flac, covers\Sam Cooke\Keep Movin' On\12 - It's Got The Whole World Shakin' (Sam Cooke) (1964).wav
Nivel Pico 98.4 %
Calidad de Pista 100.0 %
Copiar CRC 5075B76F
Extracciуn precisa (nivel de confianza 5) [44513FB3]
Copia OK
Pista 13
Nombre de Archivo I:\Downloads\Sam Cooke - Keep movin' on - ABKCO 2001 - eac, flac, covers\Sam Cooke\Keep Movin' On\13 - The Riddle Song (Sam Cooke) (1963).wav
Nivel Pico 98.7 %
Calidad de Pista 100.0 %
Copiar CRC 7F2CFE82
Extracciуn precisa (nivel de confianza 5) [E3705934]
Copia OK
Pista 14
Nombre de Archivo I:\Downloads\Sam Cooke - Keep movin' on - ABKCO 2001 - eac, flac, covers\Sam Cooke\Keep Movin' On\14 - I'm Just A Country Boy (Brooks-Barer) (1963).wav
Nivel Pico 89.9 %
Calidad de Pista 100.0 %
Copiar CRC 23EB30B9
Extracciуn precisa (nivel de confianza 5) [3D334340]
Copia OK
Pista 15
Nombre de Archivo I:\Downloads\Sam Cooke - Keep movin' on - ABKCO 2001 - eac, flac, covers\Sam Cooke\Keep Movin' On\15 - Try A Little Love (Sam Cooke-Alexander) (1959).wav
Nivel Pico 100.0 %
Calidad de Pista 100.0 %
Copiar CRC DD9BE0CC
Extracciуn precisa (nivel de confianza 5) [A0248870]
Copia OK
Pista 16
Nombre de Archivo I:\Downloads\Sam Cooke - Keep movin' on - ABKCO 2001 - eac, flac, covers\Sam Cooke\Keep Movin' On\16 - There'll Be No Second Time (Clifton White) (1963).wav
Nivel Pico 97.1 %
Calidad de Pista 100.0 %
Copiar CRC 02F5622E
Extracciуn precisa (nivel de confianza 5) [3C7F2D35]
Copia OK
Pista 17
Nombre de Archivo I:\Downloads\Sam Cooke - Keep movin' on - ABKCO 2001 - eac, flac, covers\Sam Cooke\Keep Movin' On\17 - Another Saturday Night (Sam Cooke) (1963).wav
Nivel Pico 100.0 %
Calidad de Pista 100.0 %
Copiar CRC 5866B16F
Extracciуn precisa (nivel de confianza 5) [AD17A1CD]
Copia OK
Pista 18
Nombre de Archivo I:\Downloads\Sam Cooke - Keep movin' on - ABKCO 2001 - eac, flac, covers\Sam Cooke\Keep Movin' On\18 - Sugar Dumpling (Sam Cooke) (1963).wav
Nivel Pico 95.9 %
Calidad de Pista 100.0 %
Copiar CRC 24125D7D
Extracciуn precisa (nivel de confianza 5) [371751A6]
Copia OK
Pista 19
Nombre de Archivo I:\Downloads\Sam Cooke - Keep movin' on - ABKCO 2001 - eac, flac, covers\Sam Cooke\Keep Movin' On\19 - That's Where It's At (Sam Cooke-Alexander) (1964).wav
Nivel Pico 99.9 %
Calidad de Pista 100.0 %
Copiar CRC 887C58BD
Extracciуn precisa (nivel de confianza 5) [56DED6B1]
Copia OK
Pista 20
Nombre de Archivo I:\Downloads\Sam Cooke - Keep movin' on - ABKCO 2001 - eac, flac, covers\Sam Cooke\Keep Movin' On\20 - You're Nobody 'Til Somebody Loves You (Morgan-Stock-Cavanaugh) (1964).wav
Nivel Pico 96.8 %
Calidad de Pista 100.0 %
Copiar CRC 8C6F5D52
Extracciуn precisa (nivel de confianza 5) [3D1C4D96]
Copia OK
Pista 21
Nombre de Archivo I:\Downloads\Sam Cooke - Keep movin' on - ABKCO 2001 - eac, flac, covers\Sam Cooke\Keep Movin' On\21 - (Somebody) Ease My Troublin' Mind (Sam Cooke) (1964).wav
Nivel Pico 99.9 %
Calidad de Pista 100.0 %
Copiar CRC 8E088C01
Extracciуn precisa (nivel de confianza 5) [D0971CEE]
Copia OK
Pista 22
Nombre de Archivo I:\Downloads\Sam Cooke - Keep movin' on - ABKCO 2001 - eac, flac, covers\Sam Cooke\Keep Movin' On\22 - A Change Is Gonna Come (Sam Cooke) (1964).wav
Nivel Pico 95.5 %
Calidad de Pista 100.0 %
Copiar CRC FE7B9234
Extracciуn precisa (nivel de confianza 4) [E557B9EE]
Copia OK
Pista 23
Nombre de Archivo I:\Downloads\Sam Cooke - Keep movin' on - ABKCO 2001 - eac, flac, covers\Sam Cooke\Keep Movin' On\23 - Keep Movin' On (Sam Cooke) (1963).wav
Nivel Pico 98.7 %
Calidad de Pista 100.0 %
Copiar CRC 92FC5FEF
Extracciуn precisa (nivel de confianza 3) [2569DC0F]
Copia OK
Todas las pistas extraidas de modo preciso
Sin Errores
Final del Informe
 
Текст CUE Sheet
REM GENRE Soul
REM DISCID 2E0EB917
REM COMMENT "ExactAudioCopy v0.99pb5"
PERFORMER "Sam Cooke"
TITLE "Keep Movin' On"
FILE "01 - Good News (Sam Cooke) (1963).wav" WAVE
TRACK 01 AUDIO
TITLE "Good News (Sam Cooke) (1963)"
PERFORMER "Sam Cooke"
INDEX 01 00:00:00
TRACK 02 AUDIO
TITLE "Rome (Wasn't Built In A Day) (Sam Cooke-Prudhomme) (1964)"
PERFORMER "Sam Cooke"
INDEX 00 02:28:26
FILE "02 - Rome (Wasn't Built In A Day) (Sam Cooke-Prudhomme) (1964).wav" WAVE
INDEX 01 00:00:00
TRACK 03 AUDIO
TITLE "Meet Me At Mary's Place (Sam Cooke) (1964)"
PERFORMER "Sam Cooke"
INDEX 00 02:32:74
FILE "03 - Meet Me At Mary's Place (Sam Cooke) (1964).wav" WAVE
INDEX 01 00:00:00
TRACK 04 AUDIO
TITLE "Basin Street Blues (Spencer Williams) 81963)"
PERFORMER "Sam Cooke"
INDEX 00 02:41:35
FILE "04 - Basin Street Blues (Spencer Williams) 81963).wav" WAVE
INDEX 01 00:00:00
TRACK 05 AUDIO
TITLE "Cousin Of Mine (Sam Cooke) (1964)"
PERFORMER "Sam Cooke"
INDEX 00 02:47:42
FILE "05 - Cousin Of Mine (Sam Cooke) (1964).wav" WAVE
INDEX 01 00:00:00
TRACK 06 AUDIO
TITLE "Tennessee Waltz (Peewee King-Redd Stewart) (1964)"
PERFORMER "Sam Cooke"
INDEX 00 02:27:69
FILE "06 - Tennessee Waltz (Peewee King-Redd Stewart) (1964).wav" WAVE
INDEX 01 00:00:00
TRACK 07 AUDIO
TITLE "Falling In Love (Harold Battiste) (1964)"
PERFORMER "Sam Cooke"
INDEX 00 03:09:39
FILE "07 - Falling In Love (Harold Battiste) (1964).wav" WAVE
INDEX 01 00:00:00
TRACK 08 AUDIO
TITLE "When A Boy Falls In Love (Sam Cooke-Clinton Levert) (1959)"
PERFORMER "Sam Cooke"
INDEX 00 02:43:48
FILE "08 - When A Boy Falls In Love (Sam Cooke-Clinton Levert) (1959).wav" WAVE
INDEX 01 00:00:00
TRACK 09 AUDIO
TITLE "Good Times (Sam Cooke) (1964)"
PERFORMER "Sam Cooke"
INDEX 00 02:33:02
FILE "09 - Good Times (Sam Cooke) (1964).wav" WAVE
INDEX 01 00:00:00
TRACK 10 AUDIO
TITLE "Shake (Sam Cooke) (1964)"
PERFORMER "Sam Cooke"
INDEX 00 02:26:41
FILE "10 - Shake (Sam Cooke) (1964).wav" WAVE
INDEX 01 00:00:00
TRACK 11 AUDIO
TITLE "Yeah Man (Sam Cooke) (1964)"
PERFORMER "Sam Cooke"
INDEX 00 02:50:09
FILE "11 - Yeah Man (Sam Cooke) (1964).wav" WAVE
INDEX 01 00:00:00
TRACK 12 AUDIO
TITLE "It's Got The Whole World Shakin' (Sam Cooke) (1964)"
PERFORMER "Sam Cooke"
INDEX 00 02:31:61
FILE "12 - It's Got The Whole World Shakin' (Sam Cooke) (1964).wav" WAVE
INDEX 01 00:00:00
TRACK 13 AUDIO
TITLE "The Riddle Song (Sam Cooke) (1963)"
PERFORMER "Sam Cooke"
INDEX 00 02:45:41
FILE "13 - The Riddle Song (Sam Cooke) (1963).wav" WAVE
INDEX 01 00:00:00
TRACK 14 AUDIO
TITLE "I'm Just A Country Boy (Brooks-Barer) (1963)"
PERFORMER "Sam Cooke"
INDEX 00 02:29:59
FILE "14 - I'm Just A Country Boy (Brooks-Barer) (1963).wav" WAVE
INDEX 01 00:00:00
TRACK 15 AUDIO
TITLE "Try A Little Love (Sam Cooke-Alexander) (1959)"
PERFORMER "Sam Cooke"
INDEX 00 02:27:13
FILE "15 - Try A Little Love (Sam Cooke-Alexander) (1959).wav" WAVE
INDEX 01 00:00:00
TRACK 16 AUDIO
TITLE "There'll Be No Second Time (Clifton White) (1963)"
PERFORMER "Sam Cooke"
INDEX 00 02:37:32
FILE "16 - There'll Be No Second Time (Clifton White) (1963).wav" WAVE
INDEX 01 00:00:00
TRACK 17 AUDIO
TITLE "Another Saturday Night (Sam Cooke) (1963)"
PERFORMER "Sam Cooke"
INDEX 00 03:01:17
FILE "17 - Another Saturday Night (Sam Cooke) (1963).wav" WAVE
INDEX 01 00:00:00
TRACK 18 AUDIO
TITLE "Sugar Dumpling (Sam Cooke) (1963)"
PERFORMER "Sam Cooke"
INDEX 00 02:40:13
FILE "18 - Sugar Dumpling (Sam Cooke) (1963).wav" WAVE
INDEX 01 00:00:00
TRACK 19 AUDIO
TITLE "That's Where It's At (Sam Cooke-Alexander) (1964)"
PERFORMER "Sam Cooke"
INDEX 00 02:42:57
FILE "19 - That's Where It's At (Sam Cooke-Alexander) (1964).wav" WAVE
INDEX 01 00:00:00
TRACK 20 AUDIO
TITLE "You're Nobody 'Til Somebody Loves You (Morgan-Stock-Cavanaugh) (1964)"
PERFORMER "Sam Cooke"
INDEX 00 02:35:37
FILE "20 - You're Nobody 'Til Somebody Loves You (Morgan-Stock-Cavanaugh) (1964).wav" WAVE
INDEX 01 00:00:00
TRACK 21 AUDIO
TITLE "(Somebody) Ease My Troublin' Mind (Sam Cooke) (1964)"
PERFORMER "Sam Cooke"
INDEX 00 03:00:27
FILE "21 - (Somebody) Ease My Troublin' Mind (Sam Cooke) (1964).wav" WAVE
INDEX 01 00:00:00
TRACK 22 AUDIO
TITLE "A Change Is Gonna Come (Sam Cooke) (1964)"
PERFORMER "Sam Cooke"
INDEX 00 02:53:28
FILE "22 - A Change Is Gonna Come (Sam Cooke) (1964).wav" WAVE
INDEX 01 00:00:00
TRACK 23 AUDIO
TITLE "Keep Movin' On (Sam Cooke) (1963)"
PERFORMER "Sam Cooke"
INDEX 00 03:11:22
FILE "23 - Keep Movin' On (Sam Cooke) (1963).wav" WAVE
INDEX 01 00:00:00
 
отчет auCDtect Task Manager
-----------------------
DON'T MODIFY THIS FILE
-----------------------
PERFORMER: auCDtect Task Manager, ver. 1.0.3 B1 build 1.0.3.0
Copyright (c) 2008, 2009 y-soft. All rights reserved
http://y-soft.110mb.com
ANALYZER: auCDtect: CD records authenticity detector, version 0.8.2
Copyright (c) 2004 Oleg Berngardt. All rights reserved.
Copyright (c) 2004 Alexander Djourik. All rights reserved.
FILE: 01 - Good News (Sam Cooke) (1963).flac
Size: 15817767 Hash: 8F66B1FD2F0FAACA284BA1D28FFA1BC6 Accuracy: -m0
Conclusion: CDDA 100%
Signature: 7A95AF7C83687B73A652E057D027BCE1B25094EE
FILE: 02 - Rome (Wasn't Built In A Day) (Sam Cooke-Prudhomme) (1964).flac
Size: 17067358 Hash: E55AE3CA61ACF356BEDF63CFE89ED355 Accuracy: -m0
Conclusion: CDDA 100%
Signature: F0643B67EE86E81456A91D2BD88576EC513A1977
FILE: 03 - Meet Me At Mary's Place (Sam Cooke) (1964).flac
Size: 18145415 Hash: F090F3F19B036437A3C98E4E6DDBF9FB Accuracy: -m0
Conclusion: CDDA 100%
Signature: 4FB2E18FFF6AC10C8B56A3F082FB7B0D0E4D014C
FILE: 04 - Basin Street Blues (Spencer Williams) 81963).flac
Size: 17693967 Hash: DDF6537179CB92BE8B1B96B69FDCB322 Accuracy: -m0
Conclusion: CDDA 100%
Signature: D8B70EF0292767364308004C45FFC2F6AD5373A1
FILE: 05 - Cousin Of Mine (Sam Cooke) (1964).flac
Size: 15855394 Hash: 03A75AF33B12E475D4B49C19680A6857 Accuracy: -m0
Conclusion: CDDA 100%
Signature: 34ECB7B8422A97E43ECED402A6D84F1777CD05A2
FILE: 06 - Tennessee Waltz (Peewee King-Redd Stewart) (1964).flac
Size: 21975047 Hash: 4F96AF2E9F53505A3289E4052080F18F Accuracy: -m0
Conclusion: CDDA 100%
Signature: 2DB7E62D8509EA43C7F877EEE4E97866F25E4EC7
FILE: 07 - Falling In Love (Harold Battiste) (1964).flac
Size: 15206395 Hash: EF5A6E08BB71F1FAAA38E9797C715C67 Accuracy: -m0
Conclusion: CDDA 100%
Signature: 7A763F0873883B66D9505B43B74C744C49230ED8
FILE: 08 - When A Boy Falls In Love (Sam Cooke-Clinton Levert) (1959).flac
Size: 16452012 Hash: 0411FFECEF31F4DB79F239A888898C35 Accuracy: -m0
Conclusion: CDDA 100%
Signature: 3794E2CCB42BAB4F4EE01A5E5750241127EB5858
FILE: 09 - Good Times (Sam Cooke) (1964).flac
Size: 16561027 Hash: CD936B383D10BDDCE06135753D90F814 Accuracy: -m0
Conclusion: CDDA 99%
Signature: CC97396ADFF4C34AB8BE0471FB6BDEF91C534B85
FILE: 10 - Shake (Sam Cooke) (1964).flac
Size: 18205723 Hash: 13D62DF19969EC7BE715797270F1C612 Accuracy: -m0
Conclusion: CDDA 100%
Signature: 4C6D742C8BA312DED9447F825566CD1EB07F765C
FILE: 11 - Yeah Man (Sam Cooke) (1964).flac
Size: 16175527 Hash: 32904A626D3DFA299100B8FC2365BDAA Accuracy: -m0
Conclusion: CDDA 99%
Signature: CFE2AA6700CA3E45600D0E5DACC1056AC6BA0AA6
FILE: 12 - It's Got The Whole World Shakin' (Sam Cooke) (1964).flac
Size: 18117925 Hash: C847300A896CF990A9A5919D125B8AAA Accuracy: -m0
Conclusion: CDDA 100%
Signature: 5F117F012DC5D4246FEDA8B9412A3F5674FB2357
FILE: 13 - The Riddle Song (Sam Cooke) (1963).flac
Size: 15639430 Hash: C1D65353328E657C5F373EB318B7BF28 Accuracy: -m0
Conclusion: CDDA 100%
Signature: D3842AE225DD04566EDE0AC228CFE1FC8885A275
FILE: 14 - I'm Just A Country Boy (Brooks-Barer) (1963).flac
Size: 14463318 Hash: A425E4FFF9891FFFFEEF1C031F961A2A Accuracy: -m0
Conclusion: CDDA 99%
Signature: 113848ADE732C0A9A9959D785F851B4B859707CD
FILE: 15 - Try A Little Love (Sam Cooke-Alexander) (1959).flac
Size: 16752534 Hash: 8B79487227D59F2F4264BF276D298B9D Accuracy: -m0
Conclusion: CDDA 87%
Signature: 5BD40DBCCC9DE481C1B735F245E4C76345DC7E1F
FILE: 16 - There'll Be No Second Time (Clifton White) (1963).flac
Size: 19348450 Hash: 7A4A96F9C4C73DACFAC0AC1E92E30214 Accuracy: -m0
Conclusion: CDDA 100%
Signature: D26E38453BF7AA6446377B365F299C94F5CB288B
FILE: 17 - Another Saturday Night (Sam Cooke) (1963).flac
Size: 17742216 Hash: 6E25CA8146D07AD82A8C46A101A94E77 Accuracy: -m0
Conclusion: CDDA 100%
Signature: 3A76E1BA1C226AB7A2ECAF5D0CF41C54E1433938
FILE: 18 - Sugar Dumpling (Sam Cooke) (1963).flac
Size: 17156171 Hash: F7D5DC72F0172C7901039CE215C07312 Accuracy: -m0
Conclusion: CDDA 100%
Signature: 19F0E7D7A3FE11ABBFCF3D270491330B31C653FA
FILE: 19 - That's Where It's At (Sam Cooke-Alexander) (1964).flac
Size: 16221142 Hash: 78BB952718EF7DC89FC6A44DDBCAE5EC Accuracy: -m0
Conclusion: CDDA 100%
Signature: 14488A5EF7BDD6284CAC492F8697398F4CA6E25A
FILE: 20 - You're Nobody 'Til Somebody Loves You (Morgan-Stock-Cavanaugh) (1964).flac
Size: 19017054 Hash: FE37DDC063CDFA4F0255B2723FE43E27 Accuracy: -m0
Conclusion: CDDA 99%
Signature: F1484058F990732C6034EAFA29543EB8CF9E6C8B
FILE: 21 - (Somebody) Ease My Troublin' Mind (Sam Cooke) (1964).flac
Size: 19122560 Hash: ED8372E7268223C2EC2AD09D1DA3B3F0 Accuracy: -m0
Conclusion: CDDA 100%
Signature: CE65A925633E8DCD2795BF01379482AC4F469677
FILE: 23 - Keep Movin' On (Sam Cooke) (1963).flac
Size: 14499630 Hash: 2FF6190F2FEB118602B634CE5A28C8DD Accuracy: -m0
Conclusion: CDDA 100%
Signature: 4FBAEF0D4161883D584B2867754821C8E5AF4963
FILE: 22 - A Change Is Gonna Come (Sam Cooke) (1964).flac
Size: 19143132 Hash: D76B3D928738FFF0EABF22AAC623E903 Accuracy: -m0
Conclusion: CDDA 100%
Signature: 41C758501EEDA71936F4C0DED1093179E0CBA6E7
Приватный:
Нет (DHT включён)
Размер:
395.80 Мб (415,030,196 байт) » файлов: 43
Участники:
0 раздают, 0 качают (0 участников всего)
Внешние участники:
5 раздают, 1 качают (6 участников всего) [ Обновить ]
Никого нет на раздаче - пишите личное сообщение M0p94ok
No seeders - write personal message to M0p94ok
03:04
20
Нет комментариев. Ваш будет первым!