Поиск

(Soul/Funk) Yvonne Fair - The Bitch Is Black - 1975. - 2008, APE (image+.cue), lossless

Треклист:
Yvonne Fair - The Bitch Is Black - 1975.
Жанр: Soul/Funk
Год выпуска диска: 2008
Производитель диска: Reel Music
Аудио кодек: APE
Тип рипа: image+.cue
Битрейт аудио: lossless
Продолжительность: 32:59
Трэклист:
01. Funky Music Sho Nuff Turns Me On (B. Strong, N. Whitfield) - 3:02
02. It Should Have Been Me (N. Whitfield, W. Stevenson) - 3:33
03. Stay A Little Longer (A. C. Scott, H. Fuqua, V. Williams) - 3:26
04. It's Bad For Me To See You (G. Jones, P. Sawyer) - 3:31
05. Tell Me Something Good (S. Wonder) - 3:26
06. Let Your Hair Down (N. Whitfield) - 4:06
07. Love Ain't No Toy (N. Whitfield) - 3:22
08. I Know (You Don't Love Me No More) (B. George) - 3:15
09. Walk Out The Door If You Wanna (N. Whitfield) - 2:14
10. You Can't Judge A Book By It's Cover (H. Cosby, S. Wonder, S. Moy) - 2:42
Yvonne Fair - vocals
Carolyn Willis, Julia Tillman Waters, Luther Waters, Maxine Willard & Oren Waters - backing vocals
Earl Van Dyke & Mark Davis - keyboards
Dennis Coffey, Eddie Willis, Johnny McGhee & Melvin "Wah Wah" Ragin - guitars
Henry Davis & James Jamerson - bass
Eddie Greene & James Gadson - drums
Eddie "Bongo" Brown - percussion
Norman Whitfield & Paul Riser - arrangement
 
EAC
Exact Audio Copy V0.99 prebeta 5 from 4. May 2009
EAC extraction logfile from 1. March 2010, 18:46
Yvonne Fair / The Bitch Is Black
Used drive : HL-DT-STDVDRAM GSA-T50L Adapter: 2 ID: 0
Read mode : Secure
Utilize accurate stream : Yes
Defeat audio cache : Yes
Make use of C2 pointers : No
Read offset correction : 667
Overread into Lead-In and Lead-Out : No
Fill up missing offset samples with silence : Yes
Delete leading and trailing silent blocks : No
Null samples used in CRC calculations : Yes
Used interface : Native Win32 interface for Win NT & 2000
Used output format : Internal WAV Routines
Sample format : 44.100 Hz; 16 Bit; Stereo
TOC of the extracted CD
Track | Start | Length | Start sector | End sector
---------------------------------------------------------
1 | 0:00.00 | 3:04.00 | 0 | 13799
2 | 3:04.00 | 3:34.39 | 13800 | 29888
3 | 6:38.39 | 3:27.37 | 29889 | 45450
4 | 10:06.01 | 3:32.52 | 45451 | 61402
5 | 13:38.53 | 3:29.19 | 61403 | 77096
6 | 17:07.72 | 4:08.57 | 77097 | 95753
7 | 21:16.54 | 3:24.09 | 95754 | 111062
8 | 24:40.63 | 3:17.58 | 111063 | 125895
9 | 27:58.46 | 2:16.12 | 125896 | 136107
10 | 30:14.58 | 2:43.59 | 136108 | 148391
Range status and errors
Selected range
Filename C:\Users\minodora\Desktop\Yvonne Fair - The Bitch Is Black.wav
Peak level 98.8 %
Range quality 100.0 %
Copy CRC 843806A8
Copy OK
No errors occurred
AccurateRip summary
Track 1 accurately ripped (confidence 2) [3EDD67D9]
Track 2 accurately ripped (confidence 3) [00812394]
Track 3 accurately ripped (confidence 3) [8C3AB49A]
Track 4 accurately ripped (confidence 3) [A1ECD772]
Track 5 accurately ripped (confidence 2) [EBFFE62B]
Track 6 accurately ripped (confidence 2) [96EAA450]
Track 7 accurately ripped (confidence 2) [97F57FFF]
Track 8 accurately ripped (confidence 2) [2D2BD14F]
Track 9 accurately ripped (confidence 3) [C14627AE]
Track 10 accurately ripped (confidence 3) [541883E8]
All tracks accurately ripped
End of status report
 
audiochecker
AUDIOCHECKER v2.0 beta (build 457) - by Dester - opdester@freemail.hu
~~~~~~~~~~~~~~~~~~~~~~~~~~~~~~~~~~
-=== DO NOT EDIT THIS FILE! ===-
Path: ...\Yvonne Fair 1975 The Bitch Is Black
1 -=- Yvonne Fair - The Bitch Is Black.ape -=- CDDA (100%)
184971988
Источник:Иа (sinziana)
Доп. информация: http://en.wikipedia.org/wiki/Yvonne_Fair#Albums
Приватный:
Нет (DHT включён)
Размер:
218.10 Мб (228,698,227 байт) » файлов: 17
Участники:
0 раздают, 0 качают (0 участников всего)
Внешние участники:
--- [ Обновить ]
Никого нет на раздаче - пишите личное сообщение M0p94ok
No seeders - write personal message to M0p94ok
03:05
12
Нет комментариев. Ваш будет первым!