Поиск

(Funk, Soul) Johnnie Taylor - Who's Making Love (SCD24 4115-2) - 1968, FLAC (tracks+.cue), lossless

(Funk, Soul) Johnnie Taylor - Who's Making Love (SCD24 4115-2) - 1968, FLAC (tracks+.cue), lossless
Треклист:
Johnnie Taylor - Who's Making Love
Жанр: Funk, Soul
Год выпуска диска: 1968 (remastered 2001)
Производитель диска: Germany \ Stax
Аудио кодек: FLAC
Тип рипа: tracks+.cue
Битрейт аудио: lossless
Продолжительность: 00:34:24
1. Johnnie Taylor - Who's Making Love (2:48)
2. Johnnie Taylor - I'm Not The Same Person (3:06)
3. Johnnie Taylor - Hold On This Time (2:38)
4. Johnnie Taylor - Woman Across The River (3:13)
5. Johnnie Taylor - Can't Trust Your Neighbor (2:39)
6. Johnnie Taylor - Take Care Of Your Homework (2:39)
7. Johnnie Taylor - I'm Trying (3:00)
8. Johnnie Taylor - Poor Make Believer (2:45)
9. Johnnie Taylor - Payback Hurts (2:29)
10. Johnnie Taylor - Mr. Nobody Is Somebody Now (3:21)
11. Johnnie Taylor - I'd Rather Drink Muddy Water (2:58)
12. Johnnie Taylor - Rumors (2:48)
Собственноручный рип с оригинального диска от funky_cat!
 
Log EAC
Exact Audio Copy V0.99 prebeta 5 from 4. May 2009
EAC extraction logfile from 6. March 2010, 17:29
Johnnie Taylor / Who's Making Love...
Used drive : ASUS CB-5216A Adapter: 0 ID: 1
Read mode : Secure
Utilize accurate stream : Yes
Defeat audio cache : Yes
Make use of C2 pointers : No
Read offset correction : 6
Overread into Lead-In and Lead-Out : No
Fill up missing offset samples with silence : Yes
Delete leading and trailing silent blocks : No
Null samples used in CRC calculations : Yes
Used interface : Native Win32 interface for Win NT & 2000
Gap handling : Appended to previous track
Used output format : User Defined Encoder
Selected bitrate : 320 kBit/s
Quality : High
Add ID3 tag : No
Command line compressor : C:\Program Files\FLAC\flac.exe
Additional command line options : -5 -V -T "ARTIST=%a" -T "TITLE=%t" -T "ALBUM=%g" -T "DATE=%y" -T "TRACKNUMBER=%n" -T "GENRE=%m" -T "COMMENT=Ripped By andygrakoff aka yetiisyou" %s
TOC of the extracted CD
Track | Start | Length | Start sector | End sector
---------------------------------------------------------
1 | 0:00.00 | 2:48.52 | 0 | 12651
2 | 2:48.52 | 3:06.16 | 12652 | 26617
3 | 5:54.68 | 2:38.09 | 26618 | 38476
4 | 8:33.02 | 3:13.68 | 38477 | 53019
5 | 11:46.70 | 2:39.44 | 53020 | 64988
6 | 14:26.39 | 2:39.16 | 64989 | 76929
7 | 17:05.55 | 3:00.16 | 76930 | 90445
8 | 20:05.71 | 2:45.01 | 90446 | 102821
9 | 22:50.72 | 2:29.23 | 102822 | 114019
10 | 25:20.20 | 3:21.64 | 114020 | 129158
11 | 28:42.09 | 2:58.66 | 129159 | 142574
12 | 31:41.00 | 2:48.15 | 142575 | 155189
Track 1
Filename E:\!Rips\FUNK @ SOUL\Johnnie Taylor - Who's Making Love (SCD24 4115-2)\01. Johnnie Taylor – Who's Making Love.wav
Pre-gap length 0:00:02.00
Peak level 89.7 %
Track quality 99.9 %
Test CRC 7D3D3015
Copy CRC 7D3D3015
Track not present in AccurateRip database
Copy OK
Track 2
Filename E:\!Rips\FUNK @ SOUL\Johnnie Taylor - Who's Making Love (SCD24 4115-2)\02. Johnnie Taylor – I'm Not The Same Person.wav
Pre-gap length 0:00:02.00
Peak level 90.6 %
Track quality 100.0 %
Test CRC 8691ED4D
Copy CRC 8691ED4D
Track not present in AccurateRip database
Copy OK
Track 3
Filename E:\!Rips\FUNK @ SOUL\Johnnie Taylor - Who's Making Love (SCD24 4115-2)\03. Johnnie Taylor – Hold On This Time.wav
Pre-gap length 0:00:02.00
Peak level 96.6 %
Track quality 100.0 %
Test CRC 87F23BBB
Copy CRC 87F23BBB
Track not present in AccurateRip database
Copy OK
Track 4
Filename E:\!Rips\FUNK @ SOUL\Johnnie Taylor - Who's Making Love (SCD24 4115-2)\04. Johnnie Taylor – Woman Across The River.wav
Pre-gap length 0:00:02.00
Peak level 96.6 %
Track quality 99.9 %
Test CRC AE3248AF
Copy CRC AE3248AF
Track not present in AccurateRip database
Copy OK
Track 5
Filename E:\!Rips\FUNK @ SOUL\Johnnie Taylor - Who's Making Love (SCD24 4115-2)\05. Johnnie Taylor – Can't Trust Your Neighbor.wav
Pre-gap length 0:00:02.00
Peak level 91.3 %
Track quality 100.0 %
Test CRC 20C21D3A
Copy CRC 20C21D3A
Track not present in AccurateRip database
Copy OK
Track 6
Filename E:\!Rips\FUNK @ SOUL\Johnnie Taylor - Who's Making Love (SCD24 4115-2)\06. Johnnie Taylor – Take Care Of Your Homework.wav
Pre-gap length 0:00:02.00
Peak level 91.9 %
Track quality 100.0 %
Test CRC B3143F3D
Copy CRC B3143F3D
Track not present in AccurateRip database
Copy OK
Track 7
Filename E:\!Rips\FUNK @ SOUL\Johnnie Taylor - Who's Making Love (SCD24 4115-2)\07. Johnnie Taylor – I'm Trying.wav
Pre-gap length 0:00:02.00
Peak level 90.4 %
Track quality 100.0 %
Test CRC 2762236D
Copy CRC 2762236D
Track not present in AccurateRip database
Copy OK
Track 8
Filename E:\!Rips\FUNK @ SOUL\Johnnie Taylor - Who's Making Love (SCD24 4115-2)\08. Johnnie Taylor – Poor Make Believer.wav
Pre-gap length 0:00:02.00
Peak level 91.3 %
Track quality 99.9 %
Test CRC 61EA553E
Copy CRC 61EA553E
Track not present in AccurateRip database
Copy OK
Track 9
Filename E:\!Rips\FUNK @ SOUL\Johnnie Taylor - Who's Making Love (SCD24 4115-2)\09. Johnnie Taylor – Payback Hurts.wav
Pre-gap length 0:00:02.00
Peak level 90.5 %
Track quality 100.0 %
Test CRC FD94026D
Copy CRC FD94026D
Track not present in AccurateRip database
Copy OK
Track 10
Filename E:\!Rips\FUNK @ SOUL\Johnnie Taylor - Who's Making Love (SCD24 4115-2)\10. Johnnie Taylor – Mr. Nobody Is Somebody Now.wav
Pre-gap length 0:00:02.00
Peak level 92.2 %
Track quality 100.0 %
Test CRC 819E4D22
Copy CRC 819E4D22
Track not present in AccurateRip database
Copy OK
Track 11
Filename E:\!Rips\FUNK @ SOUL\Johnnie Taylor - Who's Making Love (SCD24 4115-2)\11. Johnnie Taylor – I'd Rather Drink Muddy Water.wav
Pre-gap length 0:00:02.00
Peak level 92.9 %
Track quality 100.0 %
Test CRC 34B0A154
Copy CRC 34B0A154
Track not present in AccurateRip database
Copy OK
Track 12
Filename E:\!Rips\FUNK @ SOUL\Johnnie Taylor - Who's Making Love (SCD24 4115-2)\12. Johnnie Taylor – Rumors.wav
Pre-gap length 0:00:02.00
Peak level 92.5 %
Track quality 100.0 %
Test CRC DA928CB8
Copy CRC DA928CB8
Track not present in AccurateRip database
Copy OK
None of the tracks are present in the AccurateRip database
No errors occurred
End of status report
 
CUE
REM GENRE Soul
REM DATE 2001
REM DISCID 8E08150C
REM COMMENT "ExactAudioCopy v0.99pb5"
PERFORMER "Johnnie Taylor"
TITLE "Who's Making Love..."
FILE "01 – Who's Making Love.wav" WAVE
TRACK 01 AUDIO
TITLE "Who's Making Love"
PERFORMER "Johnnie Taylor"
INDEX 01 00:00:00
TRACK 02 AUDIO
TITLE "I'm Not The Same Person"
PERFORMER "Johnnie Taylor"
INDEX 00 02:46:52
FILE "02 – I'm Not The Same Person.wav" WAVE
INDEX 01 00:00:00
TRACK 03 AUDIO
TITLE "Hold On This Time"
PERFORMER "Johnnie Taylor"
INDEX 00 03:04:16
FILE "03 – Hold On This Time.wav" WAVE
INDEX 01 00:00:00
TRACK 04 AUDIO
TITLE "Woman Across The River"
PERFORMER "Johnnie Taylor"
INDEX 00 02:36:09
FILE "04 – Woman Across The River.wav" WAVE
INDEX 01 00:00:00
TRACK 05 AUDIO
TITLE "Can't Trust Your Neighbor"
PERFORMER "Johnnie Taylor"
INDEX 00 03:11:68
FILE "05 – Can't Trust Your Neighbor.wav" WAVE
INDEX 01 00:00:00
TRACK 06 AUDIO
TITLE "Take Care Of Your Homework"
PERFORMER "Johnnie Taylor"
INDEX 00 02:37:44
FILE "06 – Take Care Of Your Homework.wav" WAVE
INDEX 01 00:00:00
TRACK 07 AUDIO
TITLE "I'm Trying"
PERFORMER "Johnnie Taylor"
INDEX 00 02:37:16
FILE "07 – I'm Trying.wav" WAVE
INDEX 01 00:00:00
TRACK 08 AUDIO
TITLE "Poor Make Believer"
PERFORMER "Johnnie Taylor"
INDEX 00 02:58:16
FILE "08 – Poor Make Believer.wav" WAVE
INDEX 01 00:00:00
TRACK 09 AUDIO
TITLE "Payback Hurts"
PERFORMER "Johnnie Taylor"
INDEX 00 02:43:01
FILE "09 – Payback Hurts.wav" WAVE
INDEX 01 00:00:00
TRACK 10 AUDIO
TITLE "Mr. Nobody Is Somebody Now"
PERFORMER "Johnnie Taylor"
INDEX 00 02:27:23
FILE "10 – Mr. Nobody Is Somebody Now.wav" WAVE
INDEX 01 00:00:00
TRACK 11 AUDIO
TITLE "I'd Rather Drink Muddy Water"
PERFORMER "Johnnie Taylor"
INDEX 00 03:19:64
FILE "11 – I'd Rather Drink Muddy Water.wav" WAVE
INDEX 01 00:00:00
TRACK 12 AUDIO
TITLE "Rumors"
PERFORMER "Johnnie Taylor"
INDEX 00 02:56:66
FILE "12 – Rumors.wav" WAVE
INDEX 01 00:00:00
Приватный:
Нет (DHT включён)
Размер:
234.33 Мб (245,716,268 байт) » файлов: 22
Участники:
0 раздают, 0 качают (0 участников всего)
Внешние участники:
3 раздают, 1 качают (4 участников всего) [ Обновить ]
Никого нет на раздаче - пишите личное сообщение M0p94ok
No seeders - write personal message to M0p94ok
03:06
13
Нет комментариев. Ваш будет первым!