Поиск

(Funk, Soul, Jazz) Johnny Guitar Watson 3 albums: Funk Beyond The Call Of Duty, Giant, Love Jones - 1977-1980 (remastered 1996), FLAC (tracks+.cue), lossless

(Funk, Soul, Jazz) Johnny Guitar Watson 3 albums: Funk Beyond The Call Of Duty, Giant, Love Jones - 1977-1980 (remastered 1996), FLAC (tracks+.cue), lossless
Треклист:
Johnny Guitar Watson: Funk Beyond The Call Of Duty, Giant, Love Jones
Жанр: Funk, Soul, Jazz
Год выпуска диска: 1977-1980 (remastered 1996)
Производитель диска: Sequel Recods
Аудио кодек: FLAC
Тип рипа: tracks+.cue
Битрейт аудио: lossless
Продолжительность: 1 hour 52 minutes 12 seconds
Собственноручные рипы с оригинальных дисков от funky_cat!
 
Funk Beyond The Call Of Duty 1977 (NEM CD 776) (remastered 1996)
Продолжительность: 33 min 43 sec
1. Johnny Guitar Watson - Funk Beyond The Call Of Duty (5:15)
2. Johnny Guitar Watson - It's About The Dollar Bill (4:12)
3. Johnny Guitar Watson - Give Me My Love (6:59)
4. Johnny Guitar Watson - It's A Damn Shame (4:58)
5. Johnny Guitar Watson - I'm Gonna Get You Baby (4:04)
6. Johnny Guitar Watson - Barn Door (4:27)
7. Johnny Guitar Watson - Love That Will Not Die (3:48)
 
Log EAC
Exact Audio Copy V0.99 prebeta 5 from 4. May 2009
EAC extraction logfile from 11. March 2010, 20:42
Johnny Guitar Watson / Funk Beyond The Call Of Duty
Used drive : Optiarc DVD RW AD-7170A Adapter: 0 ID: 1
Read mode : Secure
Utilize accurate stream : Yes
Defeat audio cache : Yes
Make use of C2 pointers : No
Read offset correction : 48
Overread into Lead-In and Lead-Out : No
Fill up missing offset samples with silence : Yes
Delete leading and trailing silent blocks : No
Null samples used in CRC calculations : Yes
Used interface : Native Win32 interface for Win NT & 2000
Gap handling : Appended to previous track
Used output format : User Defined Encoder
Selected bitrate : 128 kBit/s
Quality : High
Add ID3 tag : No
Command line compressor : C:\Program Files\FLAC\flac.exe
Additional command line options : -5 -V -T "ARTIST=%a" -T "TITLE=%t" -T "ALBUM=%g" -T "DATE=%y" -T "TRACKNUMBER=%n" -T "GENRE=%m" -T "COMMENT=Ripped for yetiisyou" %s
TOC of the extracted CD
Track | Start | Length | Start sector | End sector
---------------------------------------------------------
1 | 0:00.32 | 5:15.08 | 32 | 23664
2 | 5:15.40 | 4:12.22 | 23665 | 42586
3 | 9:27.62 | 6:59.28 | 42587 | 74039
4 | 16:27.15 | 4:58.32 | 74040 | 96421
5 | 21:25.47 | 4:04.23 | 96422 | 114744
6 | 25:29.70 | 4:27.72 | 114745 | 134841
7 | 29:57.67 | 3:48.40 | 134842 | 151981
Track 1
Filename E:\!Rips\FUNK @ SOUL\Johnny Guitar Watson - Funk Beyond The Call Of Duty (NEM CD 776)\01 – Funk Beyond The Call Of Duty.wav
Pre-gap length 0:00:02.42
Peak level 99.3 %
Track quality 99.9 %
Test CRC C4A6E11A
Copy CRC C4A6E11A
Track not present in AccurateRip database
Copy OK
Track 2
Filename E:\!Rips\FUNK @ SOUL\Johnny Guitar Watson - Funk Beyond The Call Of Duty (NEM CD 776)\02 – It's About The Dollar Bill.wav
Pre-gap length 0:00:01.77
Peak level 94.4 %
Track quality 100.0 %
Test CRC 949EA939
Copy CRC 949EA939
Track not present in AccurateRip database
Copy OK
Track 3
Filename E:\!Rips\FUNK @ SOUL\Johnny Guitar Watson - Funk Beyond The Call Of Duty (NEM CD 776)\03 – Give Me My Love.wav
Pre-gap length 0:00:00.26
Peak level 98.8 %
Track quality 99.9 %
Test CRC 51A5495D
Copy CRC 51A5495D
Track not present in AccurateRip database
Copy OK
Track 4
Filename E:\!Rips\FUNK @ SOUL\Johnny Guitar Watson - Funk Beyond The Call Of Duty (NEM CD 776)\04 – It's A Damn Shame.wav
Pre-gap length 0:00:02.97
Peak level 98.8 %
Track quality 100.0 %
Test CRC 4921E7EB
Copy CRC 4921E7EB
Track not present in AccurateRip database
Copy OK
Track 5
Filename E:\!Rips\FUNK @ SOUL\Johnny Guitar Watson - Funk Beyond The Call Of Duty (NEM CD 776)\05 – I'm Gonna Get You Baby.wav
Peak level 94.4 %
Track quality 100.0 %
Test CRC 43D64904
Copy CRC 43D64904
Track not present in AccurateRip database
Copy OK
Track 6
Filename E:\!Rips\FUNK @ SOUL\Johnny Guitar Watson - Funk Beyond The Call Of Duty (NEM CD 776)\06 – Barn Door.wav
Pre-gap length 0:00:01.10
Peak level 97.7 %
Track quality 99.3 %
Test CRC 355EBF77
Copy CRC 355EBF77
Track not present in AccurateRip database
Copy OK
Track 7
Filename E:\!Rips\FUNK @ SOUL\Johnny Guitar Watson - Funk Beyond The Call Of Duty (NEM CD 776)\07 – Love That Will Not Die.wav
Peak level 97.1 %
Track quality 100.0 %
Test CRC 62D6F45F
Copy CRC 62D6F45F
Track not present in AccurateRip database
Copy OK
None of the tracks are present in the AccurateRip database
No errors occurred
End of status report
 
CUE
REM GENRE Funk
REM DATE 1994
REM DISCID 7107EA07
REM COMMENT "ExactAudioCopy v0.99pb5"
PERFORMER "Johnny Guitar Watson"
TITLE "Funk Beyond The Call Of Duty"
FILE "01 – Funk Beyond The Call Of Duty.wav" WAVE
TRACK 01 AUDIO
TITLE "Funk Beyond The Call Of Duty"
PERFORMER "Johnny Guitar Watson"
PREGAP 00:00:32
INDEX 01 00:00:00
TRACK 02 AUDIO
TITLE "It's About The Dollar Bill"
PERFORMER "Johnny Guitar Watson"
INDEX 00 05:13:25
FILE "02 – It's About The Dollar Bill.wav" WAVE
INDEX 01 00:00:00
TRACK 03 AUDIO
TITLE "Give Me My Love"
PERFORMER "Johnny Guitar Watson"
INDEX 00 04:12:02
FILE "03 – Give Me My Love.wav" WAVE
INDEX 01 00:00:00
TRACK 04 AUDIO
TITLE "It's A Damn Shame"
PERFORMER "Johnny Guitar Watson"
INDEX 00 06:56:30
FILE "04 – It's A Damn Shame.wav" WAVE
INDEX 01 00:00:00
FILE "05 – I'm Gonna Get You Baby.wav" WAVE
TRACK 05 AUDIO
TITLE "I'm Gonna Get You Baby"
PERFORMER "Johnny Guitar Watson"
INDEX 01 00:00:00
TRACK 06 AUDIO
TITLE "Barn Door"
PERFORMER "Johnny Guitar Watson"
INDEX 00 04:03:15
FILE "06 – Barn Door.wav" WAVE
INDEX 01 00:00:00
FILE "07 – Love That Will Not Die.wav" WAVE
TRACK 07 AUDIO
TITLE "Love That Will Not Die"
PERFORMER "Johnny Guitar Watson"
INDEX 01 00:00:00
 
Giant 1978 (NEM CD 777) (remastered 1996)
Продолжительность: 34 min 08 sec
1. Johnny Guitar Watson - Miss Frisco (Queen Of The Disco) (5:02)
2. Johnny Guitar Watson - Tu Jours Amour (4:44)
3. Johnny Guitar Watson - Gangster Of Love (3:49)
4. Johnny Guitar Watson - Guitar Disco (4:21)
5. Johnny Guitar Watson - Wrapped In Black Mink (5:14)
6. Johnny Guitar Watson - You Can Stay But The Noise Must Go (6:10)
7. Johnny Guitar Watson - Baby Face (She Said Do Do Do Do) (4:48)
 
Log EAC
Exact Audio Copy V0.99 prebeta 5 from 4. May 2009
EAC extraction logfile from 10. March 2010, 20:08
Johnny Guitar Watson / Giant
Used drive : ASUS CB-5216A Adapter: 0 ID: 1
Read mode : Secure
Utilize accurate stream : Yes
Defeat audio cache : Yes
Make use of C2 pointers : No
Read offset correction : 6
Overread into Lead-In and Lead-Out : No
Fill up missing offset samples with silence : Yes
Delete leading and trailing silent blocks : No
Null samples used in CRC calculations : Yes
Used interface : Native Win32 interface for Win NT & 2000
Gap handling : Appended to previous track
Used output format : User Defined Encoder
Selected bitrate : 320 kBit/s
Quality : High
Add ID3 tag : No
Command line compressor : C:\Program Files\FLAC\flac.exe
Additional command line options : -5 -V -T "ARTIST=%a" -T "TITLE=%t" -T "ALBUM=%g" -T "DATE=%y" -T "TRACKNUMBER=%n" -T "GENRE=%m" -T "COMMENT=Ripped By andygrakoff aka yetiisyou" %s
TOC of the extracted CD
Track | Start | Length | Start sector | End sector
---------------------------------------------------------
1 | 0:00.32 | 5:02.33 | 32 | 22714
2 | 5:02.65 | 4:44.20 | 22715 | 44034
3 | 9:47.10 | 3:49.67 | 44035 | 61276
4 | 13:37.02 | 4:21.13 | 61277 | 80864
5 | 17:58.15 | 5:14.30 | 80865 | 104444
6 | 23:12.45 | 6:10.27 | 104445 | 132221
7 | 29:22.72 | 4:48.68 | 132222 | 153889
Track 1
Filename E:\!Rips\FUNK @ SOUL\Johnny Guitar Watson - Giant (NEM CD 777)\01 – Miss Frisco (Queen Of The Disco).wav
Pre-gap length 0:00:02.42
Peak level 95.9 %
Track quality 99.9 %
Test CRC ED84399C
Copy CRC ED84399C
Track not present in AccurateRip database
Copy OK
Track 2
Filename E:\!Rips\FUNK @ SOUL\Johnny Guitar Watson - Giant (NEM CD 777)\02 – Tu Jours Amour.wav
Pre-gap length 0:00:01.73
Peak level 82.5 %
Track quality 99.9 %
Test CRC 265A7527
Copy CRC 265A7527
Track not present in AccurateRip database
Copy OK
Track 3
Filename E:\!Rips\FUNK @ SOUL\Johnny Guitar Watson - Giant (NEM CD 777)\03 – Gangster Of Love.wav
Pre-gap length 0:00:03.33
Peak level 92.3 %
Track quality 100.0 %
Test CRC DC4DADC2
Copy CRC DC4DADC2
Track not present in AccurateRip database
Copy OK
Track 4
Filename E:\!Rips\FUNK @ SOUL\Johnny Guitar Watson - Giant (NEM CD 777)\04 – Guitar Disco.wav
Pre-gap length 0:00:03.40
Peak level 92.5 %
Track quality 100.0 %
Test CRC 5A93083B
Copy CRC 5A93083B
Track not present in AccurateRip database
Copy OK
Track 5
Filename E:\!Rips\FUNK @ SOUL\Johnny Guitar Watson - Giant (NEM CD 777)\05 – Wrapped In Black Mink.wav
Pre-gap length 0:00:02.60
Peak level 96.7 %
Track quality 100.0 %
Test CRC 10312564
Copy CRC 10312564
Track not present in AccurateRip database
Copy OK
Track 6
Filename E:\!Rips\FUNK @ SOUL\Johnny Guitar Watson - Giant (NEM CD 777)\06 – You Can Stay But The Noise Must Go.wav
Pre-gap length 0:00:02.57
Peak level 90.9 %
Track quality 99.8 %
Test CRC C3DDFD84
Copy CRC C3DDFD84
Track not present in AccurateRip database
Copy OK
Track 7
Filename E:\!Rips\FUNK @ SOUL\Johnny Guitar Watson - Giant (NEM CD 777)\07 – Baby Face (She Said Do Do Do Do).wav
Pre-gap length 0:00:03.00
Peak level 93.9 %
Track quality 99.9 %
Test CRC 551D7B03
Copy CRC 551D7B03
Track not present in AccurateRip database
Copy OK
None of the tracks are present in the AccurateRip database
No errors occurred
End of status report
 
CUE
REM DATE 1978
REM DISCID 5D080307
REM COMMENT "ExactAudioCopy v0.99pb5"
PERFORMER "Johnny Guitar Watson"
TITLE "Giant"
FILE "01 – Miss Frisco (Queen Of The Disco).wav" WAVE
TRACK 01 AUDIO
TITLE "Miss Frisco (Queen Of The Disco)"
PERFORMER "Johnny Guitar Watson"
PREGAP 00:00:32
INDEX 01 00:00:00
TRACK 02 AUDIO
TITLE "Tu Jours Amour"
PERFORMER "Johnny Guitar Watson"
INDEX 00 05:00:53
FILE "02 – Tu Jours Amour.wav" WAVE
INDEX 01 00:00:00
TRACK 03 AUDIO
TITLE "Gangster Of Love"
PERFORMER "Johnny Guitar Watson"
INDEX 00 04:40:70
FILE "03 – Gangster Of Love.wav" WAVE
INDEX 01 00:00:00
TRACK 04 AUDIO
TITLE "Guitar Disco"
PERFORMER "Johnny Guitar Watson"
INDEX 00 03:46:37
FILE "04 – Guitar Disco.wav" WAVE
INDEX 01 00:00:00
TRACK 05 AUDIO
TITLE "Wrapped In Black Mink"
PERFORMER "Johnny Guitar Watson"
INDEX 00 04:18:43
FILE "05 – Wrapped In Black Mink.wav" WAVE
INDEX 01 00:00:00
TRACK 06 AUDIO
TITLE "You Can Stay But The Noise Must Go"
PERFORMER "Johnny Guitar Watson"
INDEX 00 05:11:62
FILE "06 – You Can Stay But The Noise Must Go.wav" WAVE
INDEX 01 00:00:00
TRACK 07 AUDIO
TITLE "Baby Face (She Said Do Do Do Do)"
PERFORMER "Johnny Guitar Watson"
INDEX 00 06:07:27
FILE "07 – Baby Face (She Said Do Do Do Do).wav" WAVE
INDEX 01 00:00:00
 
Love Jones 1980 (NEM CD 779) (remastered 1996)
Продолжительность: 44 min 21 sec
1. Johnny Guitar Watson - Booty Ooty (5:27)
2. Johnny Guitar Watson - Love Jones (4:47)
3. Johnny Guitar Watson - Going Up In Smoke (5:31)
4. Johnny Guitar Watson - Close Encounters (6:38)
5. Johnny Guitar Watson - Asante Sana (1:51)
6. Johnny Guitar Watson - Telephone Bill (4:45)
7. Johnny Guitar Watson - Lone Ranger (6:33)
8. Johnny Guitar Watson - Jet Plane (3:42)
9. Johnny Guitar Watson - Children Of The Universe (5:07)
 
Log EAC
Exact Audio Copy V0.99 prebeta 5 from 4. May 2009
EAC extraction logfile from 10. March 2010, 20:17
Johnny Guitar Watson / Love Jones
Used drive : ASUS DRW-1608P2 Adapter: 0 ID: 0
Read mode : Secure
Utilize accurate stream : Yes
Defeat audio cache : Yes
Make use of C2 pointers : No
Read offset correction : 48
Overread into Lead-In and Lead-Out : No
Fill up missing offset samples with silence : Yes
Delete leading and trailing silent blocks : No
Null samples used in CRC calculations : Yes
Used interface : Native Win32 interface for Win NT & 2000
Gap handling : Appended to previous track
Used output format : User Defined Encoder
Selected bitrate : 320 kBit/s
Quality : High
Add ID3 tag : No
Command line compressor : C:\Program Files\FLAC\flac.exe
Additional command line options : -5 -V -T "ARTIST=%a" -T "TITLE=%t" -T "ALBUM=%g" -T "DATE=%y" -T "TRACKNUMBER=%n" -T "GENRE=%m" -T "COMMENT=Ripped By andygrakoff aka yetiisyou" %s
TOC of the extracted CD
Track | Start | Length | Start sector | End sector
---------------------------------------------------------
1 | 0:00.32 | 5:27.25 | 32 | 24581
2 | 5:27.57 | 4:47.08 | 24582 | 46114
3 | 10:14.65 | 5:31.02 | 46115 | 70941
4 | 15:45.67 | 6:38.23 | 70942 | 100814
5 | 22:24.15 | 1:51.65 | 100815 | 109204
6 | 24:16.05 | 4:45.10 | 109205 | 130589
7 | 29:01.15 | 6:33.27 | 130590 | 160091
8 | 35:34.42 | 3:42.40 | 160092 | 176781
9 | 39:17.07 | 5:07.55 | 176782 | 199861
Track 1
Filename E:\!Rips\FUNK @ SOUL\Johnny Guitar Watson - Love Jones (NEM CD 779)\01 – Booty Ooty.wav
Pre-gap length 0:00:02.42
Peak level 97.7 %
Track quality 100.0 %
Test CRC C292C96C
Copy CRC C292C96C
Cannot be verified as accurate (confidence 2) [9194EF79], AccurateRip returned [74948F87]
Copy OK
Track 2
Filename E:\!Rips\FUNK @ SOUL\Johnny Guitar Watson - Love Jones (NEM CD 779)\02 – Love Jones.wav
Pre-gap length 0:00:02.76
Peak level 93.4 %
Track quality 100.0 %
Test CRC 2F9C88C6
Copy CRC 2F9C88C6
Cannot be verified as accurate (confidence 2) [07378371], AccurateRip returned [DEDFC7F4]
Copy OK
Track 3
Filename E:\!Rips\FUNK @ SOUL\Johnny Guitar Watson - Love Jones (NEM CD 779)\03 – Going Up In Smoke.wav
Pre-gap length 0:00:02.60
Peak level 79.1 %
Track quality 100.0 %
Test CRC 2153C4A6
Copy CRC 2153C4A6
Cannot be verified as accurate (confidence 2) [AA23D3A4], AccurateRip returned [C44EFFD2]
Copy OK
Track 4
Filename E:\!Rips\FUNK @ SOUL\Johnny Guitar Watson - Love Jones (NEM CD 779)\04 – Close Encounters.wav
Pre-gap length 0:00:02.62
Peak level 91.0 %
Track quality 100.0 %
Test CRC 4A343701
Copy CRC 4A343701
Cannot be verified as accurate (confidence 2) [0682751E], AccurateRip returned [FE5C1DEA]
Copy OK
Track 5
Filename E:\!Rips\FUNK @ SOUL\Johnny Guitar Watson - Love Jones (NEM CD 779)\05 – Asante Sana.wav
Pre-gap length 0:00:02.66
Peak level 75.3 %
Track quality 100.0 %
Test CRC 0BECDC77
Copy CRC 0BECDC77
Cannot be verified as accurate (confidence 2) [E6B73291], AccurateRip returned [2F9C722B]
Copy OK
Track 6
Filename E:\!Rips\FUNK @ SOUL\Johnny Guitar Watson - Love Jones (NEM CD 779)\06 – Telephone Bill.wav
Pre-gap length 0:00:02.84
Peak level 96.6 %
Track quality 100.0 %
Test CRC 8BE7CA57
Copy CRC 8BE7CA57
Cannot be verified as accurate (confidence 2) [8E01E74D], AccurateRip returned [838BF4E3]
Copy OK
Track 7
Filename E:\!Rips\FUNK @ SOUL\Johnny Guitar Watson - Love Jones (NEM CD 779)\07 – Lone Ranger.wav
Pre-gap length 0:00:02.70
Peak level 98.7 %
Track quality 100.0 %
Test CRC B3E88A1F
Copy CRC B3E88A1F
Cannot be verified as accurate (confidence 2) [B1EAD737], AccurateRip returned [406CEE64]
Copy OK
Track 8
Filename E:\!Rips\FUNK @ SOUL\Johnny Guitar Watson - Love Jones (NEM CD 779)\08 – Jet Plane.wav
Pre-gap length 0:00:02.80
Peak level 88.7 %
Track quality 100.0 %
Test CRC 1FF7C07F
Copy CRC 1FF7C07F
Cannot be verified as accurate (confidence 2) [4CCE0BAC], AccurateRip returned [E4785A53]
Copy OK
Track 9
Filename E:\!Rips\FUNK @ SOUL\Johnny Guitar Watson - Love Jones (NEM CD 779)\09 – Children Of The Universe.wav
Pre-gap length 0:00:02.62
Peak level 97.0 %
Track quality 100.0 %
Test CRC 824AAB8C
Copy CRC 824AAB8C
Cannot be verified as accurate (confidence 2) [5CF01D69], AccurateRip returned [FC8696E2]
Copy OK
No tracks could be verified as accurate
You may have a different pressing from the one(s) in the database
No errors occurred
End of status report
 
CUE
REM DISCID 7F0A6809
REM COMMENT "ExactAudioCopy v0.99pb5"
PERFORMER "Johnny Guitar Watson"
TITLE "Love Jones"
FILE "01 – Booty Ooty.wav" WAVE
TRACK 01 AUDIO
TITLE "Booty Ooty"
PERFORMER "Johnny Guitar Watson"
PREGAP 00:00:32
INDEX 01 00:00:00
TRACK 02 AUDIO
TITLE "Love Jones"
PERFORMER "Johnny Guitar Watson"
INDEX 00 05:24:43
FILE "02 – Love Jones.wav" WAVE
INDEX 01 00:00:00
TRACK 03 AUDIO
TITLE "Going Up In Smoke"
PERFORMER "Johnny Guitar Watson"
INDEX 00 04:44:38
FILE "03 – Going Up In Smoke.wav" WAVE
INDEX 01 00:00:00
TRACK 04 AUDIO
TITLE "Close Encounters"
PERFORMER "Johnny Guitar Watson"
INDEX 00 05:28:30
FILE "04 – Close Encounters.wav" WAVE
INDEX 01 00:00:00
TRACK 05 AUDIO
TITLE "Asante Sana"
PERFORMER "Johnny Guitar Watson"
INDEX 00 06:35:48
FILE "05 – Asante Sana.wav" WAVE
INDEX 01 00:00:00
TRACK 06 AUDIO
TITLE "Telephone Bill"
PERFORMER "Johnny Guitar Watson"
INDEX 00 01:49:02
FILE "06 – Telephone Bill.wav" WAVE
INDEX 01 00:00:00
TRACK 07 AUDIO
TITLE "Lone Ranger"
PERFORMER "Johnny Guitar Watson"
INDEX 00 04:42:32
FILE "07 – Lone Ranger.wav" WAVE
INDEX 01 00:00:00
TRACK 08 AUDIO
TITLE "Jet Plane"
PERFORMER "Johnny Guitar Watson"
INDEX 00 06:30:42
FILE "08 – Jet Plane.wav" WAVE
INDEX 01 00:00:00
TRACK 09 AUDIO
TITLE "Children Of The Universe"
PERFORMER "Johnny Guitar Watson"
INDEX 00 03:39:68
FILE "09 – Children Of The Universe.wav" WAVE
INDEX 01 00:00:00
Приватный:
Нет (DHT включён)
Размер:
746.45 Мб (782,710,779 байт) » файлов: 50
Участники:
0 раздают, 0 качают (0 участников всего)
Внешние участники:
10 раздают, 3 качают (13 участников всего) [ Обновить ]
Нет сидеров - пишите личное сообщение M0p94ok. Не нравятся торренты? Участники группы Pro-jazz Club могут заказать прямую ссылку на скачивание из облака.
No seeders - write a personal message to M0p94ok. Don't like torrents? Members of Pro-jazz Club group can order a direct download link from the cloud.
03:06
27
Нет комментариев. Ваш будет первым!