Поиск

(funk) Tower of Power - Urban Renewal - 1974 - 1993, FLAC (image+.cue), lossless

(funk) Tower of Power - Urban Renewal - 1974 - 1993, FLAC (image+.cue), lossless
Треклист:
Tower of Power - Urban Renewal - 1974
Жанр: funk
Год выпуска диска: 1993
Производитель диска: Warner Bros. Records (Germany)
Аудио кодек: FLAC
Тип рипа: image+.cue
Битрейт аудио: lossless
Продолжительность: 00 : 38 : 06
Трэклист:
1. Only So Much Oil in the Ground
2. Come Back, Baby
3. It's Not the Crime
4. I Won't Leave Unless You Want Me To
5. Maybe It'll Rub Off
6. (To Say the Least) You're the Most
7. Willing to Learn
8. Give Me the Proof
9. It Can Never Be the Same
10. I Believe in Myself
11. Walkin' Up Hip Street
Доп. информация: рип сделан с оригинального cd из моей коллекции .
 
скрытый текст
Exact Audio Copy V0.99 prebeta 5 from 4. May 2009
EAC extraction logfile from 16. March 2010, 5:26
Tower Of Power / Urban Renewal
Used drive : SONY DVD RW DRX-S70U Adapter: 2 ID: 0
Read mode : Secure
Utilize accurate stream : Yes
Defeat audio cache : Yes
Make use of C2 pointers : No
Read offset correction : 48
Overread into Lead-In and Lead-Out : No
Fill up missing offset samples with silence : Yes
Delete leading and trailing silent blocks : No
Null samples used in CRC calculations : Yes
Used interface : Native Win32 interface for Win NT & 2000
Used output format : User Defined Encoder
Selected bitrate : 128 kBit/s
Quality : High
Add ID3 tag : No
Command line compressor : C:\Program Files\Exact Audio Copy\Flac\flac.exe
Additional command line options : -8 -V %s
TOC of the extracted CD
Track | Start | Length | Start sector | End sector
---------------------------------------------------------
1 | 0:00.00 | 3:48.25 | 0 | 17124
2 | 3:48.25 | 3:22.12 | 17125 | 32286
3 | 7:10.37 | 1:47.03 | 32287 | 40314
4 | 8:57.40 | 3:31.65 | 40315 | 56204
5 | 12:29.30 | 3:16.65 | 56205 | 70969
6 | 15:46.20 | 2:29.42 | 70970 | 82186
7 | 18:15.62 | 4:36.40 | 82187 | 102926
8 | 22:52.27 | 2:35.68 | 102927 | 114619
9 | 25:28.20 | 4:44.25 | 114620 | 135944
10 | 30:12.45 | 2:03.12 | 135945 | 145181
11 | 32:15.57 | 5:50.23 | 145182 | 171454
Range status and errors
Selected range
Filename d:\My Documents\T of P 1974 ruTracker\Tower Of Power - Urban Renewal.wav
Peak level 100.0 %
Range quality 100.0 %
Test CRC 675B3D32
Copy CRC 675B3D32
Copy OK
No errors occurred
AccurateRip summary
Track 1 accurately ripped (confidence 19) [F07CE154]
Track 2 accurately ripped (confidence 19) [F3EC8CDE]
Track 3 accurately ripped (confidence 19) [9790645B]
Track 4 accurately ripped (confidence 19) [42C1B0BA]
Track 5 accurately ripped (confidence 19) [45BE2F22]
Track 6 accurately ripped (confidence 19) [42B69AA4]
Track 7 accurately ripped (confidence 19) [306C5E13]
Track 8 accurately ripped (confidence 19) [09EC8D40]
Track 9 accurately ripped (confidence 20) [86C62A13]
Track 10 accurately ripped (confidence 19) [FC4AF475]
Track 11 accurately ripped (confidence 18) [11036A38]
All tracks accurately ripped
End of status report
 
скрытый текст
AUDIOCHECKER v2.0 beta (build 457) - by Dester - opdester@freemail.hu
~~~~~~~~~~~~~~~~~~~~~~~~~~~~~~~~~~
-=== DO NOT EDIT THIS FILE! ===-
Путь: ...\T of P 1974 ruTracker
1 -=- Tower Of Power - Urban Renewal.flac -=- CDDA (99%)
125987796
Приватный:
Нет (DHT включён)
Размер:
221.05 Мб (231,786,502 байт) » файлов: 4
Участники:
0 раздают, 0 качают (0 участников всего)
Внешние участники:
3 раздают, 1 качают (4 участников всего) [ Обновить ]
Никого нет на раздаче - пишите личное сообщение M0p94ok
No seeders - write personal message to M0p94ok
03:07
22
Нет комментариев. Ваш будет первым!