Поиск

(Funk, Soul) Johnny Mathis & Deniece Williams - That's What Friends Are For (487951 2) - 1978, FLAC (tracks+.cue), lossless

(Funk, Soul) Johnny Mathis & Deniece Williams - That's What Friends Are For (487951 2) - 1978, FLAC (tracks+.cue), lossless
Треклист:
Johnny Mathis & Deniece Williams - That's What Friends Are For
Жанр: Funk, Soul
Год выпуска диска: 1978 (remastered 1986)
Производитель диска: Sony Music
Аудио кодек: FLAC
Тип рипа: tracks+.cue
Битрейт аудио: lossless
Продолжительность: 00:32:45
1. Johnny Mathis & Deniece Williams - You're All I Need To Get By (2:42)
2. Johnny Mathis & Deniece Williams - Until You Come Back To Me (That's What I'm Gonna Do) (3:40)
3. Johnny Mathis & Deniece Williams - You're A Special Part Of My Life (2:57)
4. Johnny Mathis & Deniece Williams - Ready Or Not (2:52)
5. Johnny Mathis & Deniece Williams - Me For You, You For Me (3:13)
6. Johnny Mathis & Deniece Williams - Heaven Must Have Sent You (3:24)
7. Johnny Mathis & Deniece Williams - Just The Way You Are (3:45)
8. Johnny Mathis & Deniece Williams - That's What Friends Are For (3:29)
9. Johnny Mathis & Deniece Williams - I Just Can't Get Over You (4:13)
10. Johnny Mathis & Deniece Williams - Touching Me With Love (2:30)
Собственноручный рип с оригинального диска от funky_cat!
 
Log EAC
Exact Audio Copy V0.99 prebeta 5 from 4. May 2009
EAC extraction logfile from 8. March 2010, 0:50
Johnny Mathis & Deniece Williams / That's What Friends Are For
Used drive : ASUS CB-5216A Adapter: 0 ID: 1
Read mode : Secure
Utilize accurate stream : Yes
Defeat audio cache : Yes
Make use of C2 pointers : No
Read offset correction : 6
Overread into Lead-In and Lead-Out : No
Fill up missing offset samples with silence : Yes
Delete leading and trailing silent blocks : No
Null samples used in CRC calculations : Yes
Used interface : Native Win32 interface for Win NT & 2000
Gap handling : Appended to previous track
Used output format : User Defined Encoder
Selected bitrate : 320 kBit/s
Quality : High
Add ID3 tag : No
Command line compressor : C:\Program Files\FLAC\flac.exe
Additional command line options : -5 -V -T "ARTIST=%a" -T "TITLE=%t" -T "ALBUM=%g" -T "DATE=%y" -T "TRACKNUMBER=%n" -T "GENRE=%m" -T "COMMENT=Ripped By andygrakoff aka yetiisyou" %s
TOC of the extracted CD
Track | Start | Length | Start sector | End sector
---------------------------------------------------------
1 | 0:00.00 | 2:42.30 | 0 | 12179
2 | 2:42.30 | 3:40.47 | 12180 | 28726
3 | 6:23.02 | 2:57.45 | 28727 | 42046
4 | 9:20.47 | 2:52.68 | 42047 | 55014
5 | 12:13.40 | 3:13.57 | 55015 | 69546
6 | 15:27.22 | 3:24.48 | 69547 | 84894
7 | 18:51.70 | 3:45.25 | 84895 | 101794
8 | 22:37.20 | 3:29.15 | 101795 | 117484
9 | 26:06.35 | 4:13.57 | 117485 | 136516
10 | 30:20.17 | 2:30.60 | 136517 | 147826
Track 1
Filename E:\!Rips\FUNK @ SOUL\Johnny Mathis & Deniece Williams - That's What Friends Are For (487951 2)\01 – You're All I Need To Get By.wav
Pre-gap length 0:00:02.00
Peak level 91.8 %
Track quality 100.0 %
Test CRC 83AD1485
Copy CRC 83AD1485
Track not present in AccurateRip database
Copy OK
Track 2
Filename E:\!Rips\FUNK @ SOUL\Johnny Mathis & Deniece Williams - That's What Friends Are For (487951 2)\02 – Until You Come Back To Me (That's What I'm Gonna Do).wav
Pre-gap length 0:00:01.60
Peak level 100.0 %
Track quality 100.0 %
Test CRC 67208AD3
Copy CRC 67208AD3
Track not present in AccurateRip database
Copy OK
Track 3
Filename E:\!Rips\FUNK @ SOUL\Johnny Mathis & Deniece Williams - That's What Friends Are For (487951 2)\03 – You're A Special Part Of My Life.wav
Pre-gap length 0:00:01.49
Peak level 100.0 %
Track quality 100.0 %
Test CRC 208CAA66
Copy CRC 208CAA66
Track not present in AccurateRip database
Copy OK
Track 4
Filename E:\!Rips\FUNK @ SOUL\Johnny Mathis & Deniece Williams - That's What Friends Are For (487951 2)\04 – Ready Or Not.wav
Pre-gap length 0:00:01.80
Peak level 98.0 %
Track quality 100.0 %
Test CRC 98665966
Copy CRC 98665966
Track not present in AccurateRip database
Copy OK
Track 5
Filename E:\!Rips\FUNK @ SOUL\Johnny Mathis & Deniece Williams - That's What Friends Are For (487951 2)\05 – Me For You, You For Me.wav
Pre-gap length 0:00:02.20
Peak level 98.3 %
Track quality 100.0 %
Test CRC FA8EBD45
Copy CRC FA8EBD45
Track not present in AccurateRip database
Copy OK
Track 6
Filename E:\!Rips\FUNK @ SOUL\Johnny Mathis & Deniece Williams - That's What Friends Are For (487951 2)\06 – Heaven Must Have Sent You.wav
Pre-gap length 0:00:01.60
Peak level 95.1 %
Track quality 100.0 %
Test CRC C6DFD62D
Copy CRC C6DFD62D
Track not present in AccurateRip database
Copy OK
Track 7
Filename E:\!Rips\FUNK @ SOUL\Johnny Mathis & Deniece Williams - That's What Friends Are For (487951 2)\07 – Just The Way You Are.wav
Pre-gap length 0:00:01.90
Peak level 100.0 %
Track quality 100.0 %
Test CRC DFEFBDEC
Copy CRC DFEFBDEC
Track not present in AccurateRip database
Copy OK
Track 8
Filename E:\!Rips\FUNK @ SOUL\Johnny Mathis & Deniece Williams - That's What Friends Are For (487951 2)\08 – That's What Friends Are For.wav
Pre-gap length 0:00:02.00
Peak level 100.0 %
Track quality 99.9 %
Test CRC 964EE25D
Copy CRC 964EE25D
Track not present in AccurateRip database
Copy OK
Track 9
Filename E:\!Rips\FUNK @ SOUL\Johnny Mathis & Deniece Williams - That's What Friends Are For (487951 2)\09 – I Just Can't Get Over You.wav
Pre-gap length 0:00:01.90
Peak level 95.5 %
Track quality 100.0 %
Test CRC 725B85F7
Copy CRC 725B85F7
Track not present in AccurateRip database
Copy OK
Track 10
Filename E:\!Rips\FUNK @ SOUL\Johnny Mathis & Deniece Williams - That's What Friends Are For (487951 2)\10 – Touching Me With Love.wav
Pre-gap length 0:00:02.16
Peak level 100.0 %
Track quality 100.0 %
Test CRC D11A147F
Copy CRC D11A147F
Track not present in AccurateRip database
Copy OK
None of the tracks are present in the AccurateRip database
No errors occurred
End of status report
 
CUE
REM DISCID 8807B30A
REM COMMENT "ExactAudioCopy v0.99pb5"
PERFORMER "Johnny Mathis & Deniece Williams"
TITLE "That's What Friends Are For"
FILE "01 – You're All I Need To Get By.wav" WAVE
TRACK 01 AUDIO
TITLE "You're All I Need To Get By"
PERFORMER "Johnny Mathis & Deniece Williams"
INDEX 01 00:00:00
TRACK 02 AUDIO
TITLE "Until You Come Back To Me (That's What I'm Gonna Do)"
PERFORMER "Johnny Mathis & Deniece Williams"
INDEX 00 02:40:60
FILE "02 – Until You Come Back To Me (That's What I'm Gonna Do).wav" WAVE
INDEX 01 00:00:00
TRACK 03 AUDIO
TITLE "You're A Special Part Of My Life"
PERFORMER "Johnny Mathis & Deniece Williams"
INDEX 00 03:39:10
FILE "03 – You're A Special Part Of My Life.wav" WAVE
INDEX 01 00:00:00
TRACK 04 AUDIO
TITLE "Ready Or Not"
PERFORMER "Johnny Mathis & Deniece Williams"
INDEX 00 02:55:60
FILE "04 – Ready Or Not.wav" WAVE
INDEX 01 00:00:00
TRACK 05 AUDIO
TITLE "Me For You, You For Me"
PERFORMER "Johnny Mathis & Deniece Williams"
INDEX 00 02:50:53
FILE "05 – Me For You, You For Me.wav" WAVE
INDEX 01 00:00:00
TRACK 06 AUDIO
TITLE "Heaven Must Have Sent You"
PERFORMER "Johnny Mathis & Deniece Williams"
INDEX 00 03:12:12
FILE "06 – Heaven Must Have Sent You.wav" WAVE
INDEX 01 00:00:00
TRACK 07 AUDIO
TITLE "Just The Way You Are"
PERFORMER "Johnny Mathis & Deniece Williams"
INDEX 00 03:22:55
FILE "07 – Just The Way You Are.wav" WAVE
INDEX 01 00:00:00
TRACK 08 AUDIO
TITLE "That's What Friends Are For"
PERFORMER "Johnny Mathis & Deniece Williams"
INDEX 00 03:43:25
FILE "08 – That's What Friends Are For.wav" WAVE
INDEX 01 00:00:00
TRACK 09 AUDIO
TITLE "I Just Can't Get Over You"
PERFORMER "Johnny Mathis & Deniece Williams"
INDEX 00 03:27:22
FILE "09 – I Just Can't Get Over You.wav" WAVE
INDEX 01 00:00:00
TRACK 10 AUDIO
TITLE "Touching Me With Love"
PERFORMER "Johnny Mathis & Deniece Williams"
INDEX 00 04:11:45
FILE "10 – Touching Me With Love.wav" WAVE
INDEX 01 00:00:00
Приватный:
Нет (DHT включён)
Размер:
221.02 Мб (231,757,931 байт) » файлов: 20
Участники:
0 раздают, 0 качают (0 участников всего)
Внешние участники:
--- [ Обновить ]
Никого нет на раздаче - пишите личное сообщение M0p94ok
No seeders - write personal message to M0p94ok
03:08
14
Нет комментариев. Ваш будет первым!