Поиск

(Funk, Soul) KC & The Sunshine Band - KC & The Sunshine Band (072435789092) - 1975, FLAC (tracks+.cue), lossless

(Funk, Soul) KC & The Sunshine Band - KC & The Sunshine Band (072435789092) - 1975, FLAC (tracks+.cue), lossless
Треклист:
KC & The Sunshine Band - KC & The Sunshine Band
Жанр: Funk, Soul
Год выпуска диска: 1975(remastered 2004)
Производитель диска: EMI records
Аудио кодек: FLAC
Тип рипа: tracks+.cue
Битрейт аудио: lossless
Продолжительность: 00:29:45
1. KC and the Sunshine Band - Let It Go (Part 1) (2:55)
2. KC and the Sunshine Band - That's The Way (I Like It) (5:06)
3. KC and the Sunshine Band - Get Down Tonight (5:14)
4. KC and the Sunshine Band - Boogie Shoes (2:17)
5. KC and the Sunshine Band - Ain't Nothin' Wrong (3:08)
6. KC and the Sunshine Band - I'm So Crazy ('bout You) (3:07)
7. KC and the Sunshine Band - What Makes You Happy (2:50)
8. KC and the Sunshine Band - I Get Lifted (3:05)
9. KC and the Sunshine Band - Let It Go (Part 2) (2:03)
Собственноручный рип с оригинального диска от funky_cat!
 
Log EAC
Exact Audio Copy V0.99 prebeta 5 from 4. May 2009
EAC extraction logfile from 13. March 2010, 14:32
KC and the Sunshine Band / KC and the Sunshine Band
Used drive : ASUS DRW-1608P2 Adapter: 0 ID: 0
Read mode : Secure
Utilize accurate stream : Yes
Defeat audio cache : Yes
Make use of C2 pointers : No
Read offset correction : 48
Overread into Lead-In and Lead-Out : No
Fill up missing offset samples with silence : Yes
Delete leading and trailing silent blocks : No
Null samples used in CRC calculations : Yes
Used interface : Native Win32 interface for Win NT & 2000
Gap handling : Appended to previous track
Used output format : User Defined Encoder
Selected bitrate : 1024 kBit/s
Quality : High
Add ID3 tag : No
Command line compressor : C:\Program Files\FLAC\flac.exe
Additional command line options : -5 -V -T "ARTIST=%a" -T "TITLE=%t" -T "ALBUM=%g" -T "DATE=%y" -T "TRACKNUMBER=%n" -T "GENRE=%m" -T "COMMENT=Ripped by andygrakoff aka yetiisyou" %s
TOC of the extracted CD
Track | Start | Length | Start sector | End sector
---------------------------------------------------------
1 | 0:00.36 | 2:55.38 | 36 | 13198
2 | 2:55.74 | 5:06.09 | 13199 | 36157
3 | 8:02.08 | 5:14.28 | 36158 | 59735
4 | 13:16.36 | 2:17.56 | 59736 | 70066
5 | 15:34.17 | 3:08.31 | 70067 | 84197
6 | 18:42.48 | 3:07.50 | 84198 | 98272
7 | 21:50.23 | 2:50.53 | 98273 | 111075
8 | 24:41.01 | 3:05.59 | 111076 | 125009
9 | 27:46.60 | 2:03.45 | 125010 | 134279
10 | 32:22.30 | 41:35.45 | 145680 | 332849
Track 1
Filename E:\!Rips\FUNK @ SOUL\KC & The Sunshine Band - K.C. & The Sunshine Band (072435789092)\01 – Let It Go (Part 1).wav
Pre-gap length 0:00:02.48
Peak level 100.0 %
Track quality 100.0 %
Test CRC 9367168A
Copy CRC 9367168A
Track not present in AccurateRip database
Copy OK
Track 2
Filename E:\!Rips\FUNK @ SOUL\KC & The Sunshine Band - K.C. & The Sunshine Band (072435789092)\02 – That's The Way (I Like It).wav
Pre-gap length 0:00:00.02
Peak level 100.0 %
Track quality 100.0 %
Test CRC E5AB954D
Copy CRC E5AB954D
Track not present in AccurateRip database
Copy OK
Track 3
Filename E:\!Rips\FUNK @ SOUL\KC & The Sunshine Band - K.C. & The Sunshine Band (072435789092)\03 – Get Down Tonight.wav
Pre-gap length 0:00:00.97
Peak level 100.0 %
Track quality 100.0 %
Test CRC 7046F3B9
Copy CRC 7046F3B9
Track not present in AccurateRip database
Copy OK
Track 4
Filename E:\!Rips\FUNK @ SOUL\KC & The Sunshine Band - K.C. & The Sunshine Band (072435789092)\04 – Boogie Shoes.wav
Pre-gap length 0:00:00.69
Peak level 100.0 %
Track quality 100.0 %
Test CRC 0B4B3CD8
Copy CRC 0B4B3CD8
Track not present in AccurateRip database
Copy OK
Track 5
Filename E:\!Rips\FUNK @ SOUL\KC & The Sunshine Band - K.C. & The Sunshine Band (072435789092)\05 – Ain't Nothin' Wrong.wav
Pre-gap length 0:00:00.92
Peak level 100.0 %
Track quality 100.0 %
Test CRC B599AC53
Copy CRC B599AC53
Track not present in AccurateRip database
Copy OK
Track 6
Filename E:\!Rips\FUNK @ SOUL\KC & The Sunshine Band - K.C. & The Sunshine Band (072435789092)\06 – I'm So Crazy ('bout You).wav
Pre-gap length 0:00:00.70
Peak level 100.0 %
Track quality 100.0 %
Test CRC 15B29733
Copy CRC 15B29733
Track not present in AccurateRip database
Copy OK
Track 7
Filename E:\!Rips\FUNK @ SOUL\KC & The Sunshine Band - K.C. & The Sunshine Band (072435789092)\07 – What Makes You Happy.wav
Pre-gap length 0:00:00.57
Peak level 100.0 %
Track quality 100.0 %
Test CRC 52831D22
Copy CRC 52831D22
Track not present in AccurateRip database
Copy OK
Track 8
Filename E:\!Rips\FUNK @ SOUL\KC & The Sunshine Band - K.C. & The Sunshine Band (072435789092)\08 – I Get Lifted.wav
Pre-gap length 0:00:01.18
Peak level 100.0 %
Track quality 100.0 %
Test CRC 7CF1A112
Copy CRC 7CF1A112
Track not present in AccurateRip database
Copy OK
Track 9
Filename E:\!Rips\FUNK @ SOUL\KC & The Sunshine Band - K.C. & The Sunshine Band (072435789092)\09 – Let It Go (Part 2).wav
Pre-gap length 0:00:01.20
Peak level 100.0 %
Track quality 100.0 %
Test CRC 1309542D
Copy CRC 1309542D
Track not present in AccurateRip database
Copy OK
None of the tracks are present in the AccurateRip database
No errors occurred
End of status report
 
CUE
REM GENRE Funk
REM DATE 1975
REM DISCID 9111560A
REM COMMENT "ExactAudioCopy v0.99pb5"
PERFORMER "KC and the Sunshine Band"
TITLE "KC and the Sunshine Band"
FILE "01 – Let It Go (Part 1).wav" WAVE
TRACK 01 AUDIO
TITLE "Let It Go (Part 1)"
PERFORMER "KC and the Sunshine Band"
PREGAP 00:00:36
INDEX 01 00:00:00
TRACK 02 AUDIO
TITLE "That's The Way (I Like It)"
PERFORMER "KC and the Sunshine Band"
INDEX 00 02:55:36
FILE "02 – That's The Way (I Like It).wav" WAVE
INDEX 01 00:00:00
TRACK 03 AUDIO
TITLE "Get Down Tonight"
PERFORMER "KC and the Sunshine Band"
INDEX 00 05:05:11
FILE "03 – Get Down Tonight.wav" WAVE
INDEX 01 00:00:00
TRACK 04 AUDIO
TITLE "Boogie Shoes"
PERFORMER "KC and the Sunshine Band"
INDEX 00 05:13:51
FILE "04 – Boogie Shoes.wav" WAVE
INDEX 01 00:00:00
TRACK 05 AUDIO
TITLE "Ain't Nothin' Wrong"
PERFORMER "KC and the Sunshine Band"
INDEX 00 02:16:62
FILE "05 – Ain't Nothin' Wrong.wav" WAVE
INDEX 01 00:00:00
TRACK 06 AUDIO
TITLE "I'm So Crazy ('bout You)"
PERFORMER "KC and the Sunshine Band"
INDEX 00 03:07:53
FILE "06 – I'm So Crazy ('bout You).wav" WAVE
INDEX 01 00:00:00
TRACK 07 AUDIO
TITLE "What Makes You Happy"
PERFORMER "KC and the Sunshine Band"
INDEX 00 03:07:07
FILE "07 – What Makes You Happy.wav" WAVE
INDEX 01 00:00:00
TRACK 08 AUDIO
TITLE "I Get Lifted"
PERFORMER "KC and the Sunshine Band"
INDEX 00 02:49:39
FILE "08 – I Get Lifted.wav" WAVE
INDEX 01 00:00:00
TRACK 09 AUDIO
TITLE "Let It Go (Part 2)"
PERFORMER "KC and the Sunshine Band"
INDEX 00 03:04:44
FILE "09 – Let It Go (Part 2).wav" WAVE
INDEX 01 00:00:00
Приватный:
Нет (DHT включён)
Размер:
228.56 Мб (239,667,250 байт) » файлов: 21
Участники:
0 раздают, 0 качают (0 участников всего)
Внешние участники:
2 раздают, 1 качают (3 участников всего) [ Обновить ]
Никого нет на раздаче - пишите личное сообщение M0p94ok
No seeders - write personal message to M0p94ok
03:08
33
Нет комментариев. Ваш будет первым!