Поиск

(Funk, Soul) L.T.D. - 3 albums (Love To The World,Shine On,Something to Love) - 1976-1980, FLAC (tracks+.cue), lossless

(Funk, Soul) L.T.D. - 3 albums (Love To The World,Shine On,Something to Love) - 1976-1980, FLAC (tracks+.cue), lossless
Треклист:
L.T.D. - Love To The World, Shine On, Something to Love
Жанр: Funk, Soul
Год выпуска диска: 1976,1977,1980 (all remastered in 1996)
Производитель диска: A & M
Аудио кодек: FLAC
Тип рипа: tracks+.cue
Битрейт аудио: lossless
Продолжительность: 01:49:51
Собственноручные рипы с оригинальных дисков от funky_cat!
 
1976 - Love To The World (75021 3146 2)
Продолжительность: 33 min 20 sec
1. L.T.D - Love To The World (5:03)
2. L.T.D - Time For Pleasure (5:20)
3. L.T.D - Love Ballad (4:35)
4. L.T.D - Get Your It Together (4:44)
5. L.T.D - Let The Music Keep Playing (4:21)
6. L.T.D - The Word (5:29)
7. L.T.D - Love To The World Prayer (3:48)
 
Log EAC
Exact Audio Copy V0.99 prebeta 5 from 4. May 2009
EAC extraction logfile from 13. March 2010, 0:20
L.T.D / Love To The World
Used drive : Optiarc DVD RW AD-7170A Adapter: 0 ID: 1
Read mode : Secure
Utilize accurate stream : Yes
Defeat audio cache : Yes
Make use of C2 pointers : No
Read offset correction : 48
Overread into Lead-In and Lead-Out : No
Fill up missing offset samples with silence : Yes
Delete leading and trailing silent blocks : No
Null samples used in CRC calculations : Yes
Used interface : Native Win32 interface for Win NT & 2000
Gap handling : Appended to previous track
Used output format : User Defined Encoder
Selected bitrate : 1024 kBit/s
Quality : High
Add ID3 tag : No
Command line compressor : C:\Program Files\FLAC\flac.exe
Additional command line options : -5 -V -T "ARTIST=%a" -T "TITLE=%t" -T "ALBUM=%g" -T "DATE=%y" -T "TRACKNUMBER=%n" -T "GENRE=%m" -T "COMMENT=Ripped by andygrakoff aka yetiisyou" %s
TOC of the extracted CD
Track | Start | Length | Start sector | End sector
---------------------------------------------------------
1 | 0:00.00 | 5:03.32 | 0 | 22756
2 | 5:03.32 | 5:20.53 | 22757 | 46809
3 | 10:24.10 | 4:35.17 | 46810 | 67451
4 | 14:59.27 | 4:44.53 | 67452 | 88804
5 | 19:44.05 | 4:21.52 | 88805 | 108431
6 | 24:05.57 | 5:29.70 | 108432 | 133176
7 | 29:35.52 | 3:48.28 | 133177 | 150304
Track 1
Filename E:\!Rips\FUNK @ SOUL\L.T.D. - Love To The World (75021 3146 2)\01 – Love To The World.wav
Pre-gap length 0:00:02.00
Peak level 99.8 %
Track quality 100.0 %
Test CRC 85E9ED96
Copy CRC 85E9ED96
Track not present in AccurateRip database
Copy OK
Track 2
Filename E:\!Rips\FUNK @ SOUL\L.T.D. - Love To The World (75021 3146 2)\02 – Time For Pleasure.wav
Pre-gap length 0:00:02.82
Peak level 99.8 %
Track quality 100.0 %
Test CRC 7384E755
Copy CRC 7384E755
Track not present in AccurateRip database
Copy OK
Track 3
Filename E:\!Rips\FUNK @ SOUL\L.T.D. - Love To The World (75021 3146 2)\03 – Love Ballad.wav
Pre-gap length 0:00:03.04
Peak level 99.8 %
Track quality 100.0 %
Test CRC D8A38FF5
Copy CRC D8A38FF5
Track not present in AccurateRip database
Copy OK
Track 4
Filename E:\!Rips\FUNK @ SOUL\L.T.D. - Love To The World (75021 3146 2)\04 – Get Your It Together.wav
Pre-gap length 0:00:01.66
Peak level 99.8 %
Track quality 100.0 %
Test CRC 134A5FB1
Copy CRC 134A5FB1
Track not present in AccurateRip database
Copy OK
Track 5
Filename E:\!Rips\FUNK @ SOUL\L.T.D. - Love To The World (75021 3146 2)\05 – Let The Music Keep Playing.wav
Pre-gap length 0:00:01.60
Peak level 94.5 %
Track quality 100.0 %
Test CRC 27360D8A
Copy CRC 27360D8A
Track not present in AccurateRip database
Copy OK
Track 6
Filename E:\!Rips\FUNK @ SOUL\L.T.D. - Love To The World (75021 3146 2)\06 – The Word.wav
Pre-gap length 0:00:00.69
Peak level 99.8 %
Track quality 99.9 %
Test CRC 5677D610
Copy CRC 5677D610
Track not present in AccurateRip database
Copy OK
Track 7
Filename E:\!Rips\FUNK @ SOUL\L.T.D. - Love To The World (75021 3146 2)\07 – Love To The World Prayer.wav
Pre-gap length 0:00:02.20
Peak level 90.9 %
Track quality 100.0 %
Test CRC 7073BAB6
Copy CRC 7073BAB6
Track not present in AccurateRip database
Copy OK
None of the tracks are present in the AccurateRip database
No errors occurred
End of status report
 
CUE
REM GENRE Funk
REM DATE 1996
REM DISCID 5807D407
REM COMMENT "ExactAudioCopy v0.99pb5"
PERFORMER "L.T.D"
TITLE "Love To The World"
FILE "01 – Love To The World.wav" WAVE
TRACK 01 AUDIO
TITLE "Love To The World"
PERFORMER "L.T.D"
INDEX 01 00:00:00
TRACK 02 AUDIO
TITLE "Time For Pleasure"
PERFORMER "L.T.D"
INDEX 00 05:00:45
FILE "02 – Time For Pleasure.wav" WAVE
INDEX 01 00:00:00
TRACK 03 AUDIO
TITLE "Love Ballad"
PERFORMER "L.T.D"
INDEX 00 05:17:50
FILE "03 – Love Ballad.wav" WAVE
INDEX 01 00:00:00
TRACK 04 AUDIO
TITLE "Get Your It Together"
PERFORMER "L.T.D"
INDEX 00 04:33:42
FILE "04 – Get Your It Together.wav" WAVE
INDEX 01 00:00:00
TRACK 05 AUDIO
TITLE "Let The Music Keep Playing"
PERFORMER "L.T.D"
INDEX 00 04:43:08
FILE "05 – Let The Music Keep Playing.wav" WAVE
INDEX 01 00:00:00
TRACK 06 AUDIO
TITLE "The Word"
PERFORMER "L.T.D"
INDEX 00 04:21:00
FILE "06 – The Word.wav" WAVE
INDEX 01 00:00:00
TRACK 07 AUDIO
TITLE "Love To The World Prayer"
PERFORMER "L.T.D"
INDEX 00 05:27:55
FILE "07 – Love To The World Prayer.wav" WAVE
INDEX 01 00:00:00
 
1980 - Shine On (75021 4819 2)
Продолжительность: 37 min 16 sec
1. L.T.D. - You Gave Me Love (4:29)
2. L.T.D. - Where Did We Go Wrong (4:30)
3. L.T.D. - GetAway (4:21)
4. L.T.D. - Will Love Grow (4:22)
5. L.T.D. - Love Is What You Need (4:16)
6. L.T.D. - Shine On (4:00)
7. L.T.D. - Lovers Everywhere (3:46)
8. L.T.D. - Lady Love (3:43)
9. L.T.D. - Don'tcha Know (3:49)
 
Log EAC
Exact Audio Copy V0.99 prebeta 5 from 4. May 2009
EAC extraction logfile from 11. March 2010, 23:50
L.T.D. / Shine On
Used drive : ASUS DRW-1608P2 Adapter: 0 ID: 0
Read mode : Secure
Utilize accurate stream : Yes
Defeat audio cache : Yes
Make use of C2 pointers : No
Read offset correction : 48
Overread into Lead-In and Lead-Out : No
Fill up missing offset samples with silence : Yes
Delete leading and trailing silent blocks : No
Null samples used in CRC calculations : Yes
Used interface : Native Win32 interface for Win NT & 2000
Gap handling : Appended to previous track
Used output format : User Defined Encoder
Selected bitrate : 1024 kBit/s
Quality : High
Add ID3 tag : No
Command line compressor : C:\Program Files\FLAC\flac.exe
Additional command line options : -5 -V -T "ARTIST=%a" -T "TITLE=%t" -T "ALBUM=%g" -T "DATE=%y" -T "TRACKNUMBER=%n" -T "GENRE=%m" -T "COMMENT=Ripped for yetiisyou" %s
TOC of the extracted CD
Track | Start | Length | Start sector | End sector
---------------------------------------------------------
1 | 0:00.00 | 4:29.03 | 0 | 20177
2 | 4:29.03 | 4:30.57 | 20178 | 40484
3 | 8:59.60 | 4:21.45 | 40485 | 60104
4 | 13:21.30 | 4:22.73 | 60105 | 79827
5 | 17:44.28 | 4:16.55 | 79828 | 99082
6 | 22:01.08 | 4:00.05 | 99083 | 117087
7 | 26:01.13 | 3:46.47 | 117088 | 134084
8 | 29:47.60 | 3:43.00 | 134085 | 150809
9 | 33:30.60 | 3:49.48 | 150810 | 168032
Track 1
Filename E:\!Rips\FUNK @ SOUL\L.T.D. - Shine On (75021 4819 2)\01 – You Gave Me Love.wav
Pre-gap length 0:00:02.00
Peak level 99.8 %
Track quality 100.0 %
Test CRC 92B0196B
Copy CRC 92B0196B
Accurately ripped (confidence 1) [23B247A7]
Copy OK
Track 2
Filename E:\!Rips\FUNK @ SOUL\L.T.D. - Shine On (75021 4819 2)\02 – Where Did We Go Wrong.wav
Pre-gap length 0:00:01.53
Peak level 97.8 %
Track quality 100.0 %
Test CRC EB1770AE
Copy CRC EB1770AE
Accurately ripped (confidence 1) [2DF3C203]
Copy OK
Track 3
Filename E:\!Rips\FUNK @ SOUL\L.T.D. - Shine On (75021 4819 2)\03 – GetAway.wav
Pre-gap length 0:00:02.46
Peak level 99.8 %
Track quality 100.0 %
Test CRC 57B53F57
Copy CRC 57B53F57
Accurately ripped (confidence 1) [E0712D94]
Copy OK
Track 4
Filename E:\!Rips\FUNK @ SOUL\L.T.D. - Shine On (75021 4819 2)\04 – Will Love Grow.wav
Pre-gap length 0:00:02.56
Peak level 77.1 %
Track quality 99.9 %
Test CRC 9AA90F36
Copy CRC 9AA90F36
Accurately ripped (confidence 1) [83D045C6]
Copy OK
Track 5
Filename E:\!Rips\FUNK @ SOUL\L.T.D. - Shine On (75021 4819 2)\05 – Love Is What You Need.wav
Pre-gap length 0:00:01.93
Peak level 99.8 %
Track quality 100.0 %
Test CRC 4B73EE2F
Copy CRC 4B73EE2F
Accurately ripped (confidence 1) [F1454DC3]
Copy OK
Track 6
Filename E:\!Rips\FUNK @ SOUL\L.T.D. - Shine On (75021 4819 2)\06 – Shine On.wav
Pre-gap length 0:00:01.57
Peak level 87.1 %
Track quality 99.9 %
Test CRC 68C326A1
Copy CRC 68C326A1
Accurately ripped (confidence 1) [42B5C46F]
Copy OK
Track 7
Filename E:\!Rips\FUNK @ SOUL\L.T.D. - Shine On (75021 4819 2)\07 – Lovers Everywhere.wav
Pre-gap length 0:00:01.44
Peak level 96.4 %
Track quality 100.0 %
Test CRC 59D037DA
Copy CRC 59D037DA
Accurately ripped (confidence 1) [2E1DFF27]
Copy OK
Track 8
Filename E:\!Rips\FUNK @ SOUL\L.T.D. - Shine On (75021 4819 2)\08 – Lady Love.wav
Pre-gap length 0:00:01.13
Peak level 97.5 %
Track quality 100.0 %
Test CRC E274BABF
Copy CRC E274BABF
Accurately ripped (confidence 1) [F7A4A462]
Copy OK
Track 9
Filename E:\!Rips\FUNK @ SOUL\L.T.D. - Shine On (75021 4819 2)\09 – Don'tcha Know.wav
Pre-gap length 0:00:01.69
Peak level 82.9 %
Track quality 100.0 %
Test CRC 66F065F9
Copy CRC 66F065F9
Accurately ripped (confidence 1) [209EEC3D]
Copy OK
All tracks accurately ripped
No errors occurred
End of status report
 
CUE
REM DISCID 6408C009
REM COMMENT "ExactAudioCopy v0.99pb5"
PERFORMER "L.T.D."
TITLE "Shine On"
FILE "01 – You Gave Me Love.wav" WAVE
TRACK 01 AUDIO
TITLE "You Gave Me Love"
PERFORMER "L.T.D."
INDEX 01 00:00:00
TRACK 02 AUDIO
TITLE "Where Did We Go Wrong"
PERFORMER "L.T.D."
INDEX 00 04:27:38
FILE "02 – Where Did We Go Wrong.wav" WAVE
INDEX 01 00:00:00
TRACK 03 AUDIO
TITLE "GetAway"
PERFORMER "L.T.D."
INDEX 00 04:28:22
FILE "03 – GetAway.wav" WAVE
INDEX 01 00:00:00
TRACK 04 AUDIO
TITLE "Will Love Grow"
PERFORMER "L.T.D."
INDEX 00 04:19:03
FILE "04 – Will Love Grow.wav" WAVE
INDEX 01 00:00:00
TRACK 05 AUDIO
TITLE "Love Is What You Need"
PERFORMER "L.T.D."
INDEX 00 04:21:03
FILE "05 – Love Is What You Need.wav" WAVE
INDEX 01 00:00:00
TRACK 06 AUDIO
TITLE "Shine On"
PERFORMER "L.T.D."
INDEX 00 04:15:12
FILE "06 – Shine On.wav" WAVE
INDEX 01 00:00:00
TRACK 07 AUDIO
TITLE "Lovers Everywhere"
PERFORMER "L.T.D."
INDEX 00 03:58:47
FILE "07 – Lovers Everywhere.wav" WAVE
INDEX 01 00:00:00
TRACK 08 AUDIO
TITLE "Lady Love"
PERFORMER "L.T.D."
INDEX 00 03:45:37
FILE "08 – Lady Love.wav" WAVE
INDEX 01 00:00:00
TRACK 09 AUDIO
TITLE "Don'tcha Know"
PERFORMER "L.T.D."
INDEX 00 03:41:23
FILE "09 – Don'tcha Know.wav" WAVE
INDEX 01 00:00:00
 
1977 - Something to Love (75021 3148 2)
Продолжительность:39 min 15 sec
1. L.T.D. - Age Of The Showdown (5:36)
2. L.T.D. - (Won't Cha) Stay With Me (3:59)
3. L.T.D. - (Every Time I Turn Around) Back In Love Again (4:41)
4. L.T.D. - You Come First At Last (3:58)
5. L.T.D. - We Party Hearty (5:16)
6. L.T.D. - If You're In Need (3:41)
7. L.T.D. - Never Get Enough Of Your Love (3:49)
8. L.T.D. - Make Someone Smile (3:59)
9. L.T.D. - Material Things (4:16)
 
Log EAC
Exact Audio Copy V0.99 prebeta 5 from 4. May 2009
EAC extraction logfile from 12. March 2010, 22:56
L.T.D. / Something To Love
Used drive : ASUS DRW-1608P2 Adapter: 0 ID: 0
Read mode : Secure
Utilize accurate stream : Yes
Defeat audio cache : Yes
Make use of C2 pointers : No
Read offset correction : 48
Overread into Lead-In and Lead-Out : No
Fill up missing offset samples with silence : Yes
Delete leading and trailing silent blocks : No
Null samples used in CRC calculations : Yes
Used interface : Native Win32 interface for Win NT & 2000
Gap handling : Appended to previous track
Used output format : User Defined Encoder
Selected bitrate : 1024 kBit/s
Quality : High
Add ID3 tag : No
Command line compressor : C:\Program Files\FLAC\flac.exe
Additional command line options : -5 -V -T "ARTIST=%a" -T "TITLE=%t" -T "ALBUM=%g" -T "DATE=%y" -T "TRACKNUMBER=%n" -T "GENRE=%m" -T "COMMENT=Ripped by andygrakoff aka yetiisyou" %s
TOC of the extracted CD
Track | Start | Length | Start sector | End sector
---------------------------------------------------------
1 | 0:00.00 | 5:36.00 | 0 | 25199
2 | 5:36.00 | 3:59.43 | 25200 | 43167
3 | 9:35.43 | 4:41.12 | 43168 | 64254
4 | 14:16.55 | 3:58.45 | 64255 | 82149
5 | 18:15.25 | 5:16.58 | 82150 | 105907
6 | 23:32.08 | 3:41.07 | 105908 | 122489
7 | 27:13.15 | 3:49.02 | 122490 | 139666
8 | 31:02.17 | 3:59.68 | 139667 | 157659
9 | 35:02.10 | 4:16.60 | 157660 | 176919
Track 1
Filename E:\!Rips\FUNK @ SOUL\L.T.D. - Something to Love (75021 3148 2)\01 – Age Of The Showdown.wav
Pre-gap length 0:00:02.00
Peak level 99.8 %
Track quality 100.0 %
Test CRC 69F69D4E
Copy CRC 69F69D4E
Accurately ripped (confidence 1) [0558F6D3]
Copy OK
Track 2
Filename E:\!Rips\FUNK @ SOUL\L.T.D. - Something to Love (75021 3148 2)\02 – (Won't Cha) Stay With Me.wav
Peak level 82.0 %
Track quality 100.0 %
Test CRC 832CF4FA
Copy CRC 832CF4FA
Accurately ripped (confidence 1) [F430461C]
Copy OK
Track 3
Filename E:\!Rips\FUNK @ SOUL\L.T.D. - Something to Love (75021 3148 2)\03 – (Every Time I Turn Around) Back In Love Again.wav
Pre-gap length 0:00:01.30
Peak level 99.8 %
Track quality 100.0 %
Test CRC EEB6B6F3
Copy CRC EEB6B6F3
Accurately ripped (confidence 1) [177E3CAF]
Copy OK
Track 4
Filename E:\!Rips\FUNK @ SOUL\L.T.D. - Something to Love (75021 3148 2)\04 – You Come First At Last.wav
Peak level 99.8 %
Track quality 100.0 %
Test CRC FF2794B3
Copy CRC FF2794B3
Accurately ripped (confidence 1) [EC81D820]
Copy OK
Track 5
Filename E:\!Rips\FUNK @ SOUL\L.T.D. - Something to Love (75021 3148 2)\05 – We Party Hearty.wav
Peak level 99.8 %
Track quality 99.9 %
Test CRC 469B7A44
Copy CRC 469B7A44
Accurately ripped (confidence 1) [8927274C]
Copy OK
Track 6
Filename E:\!Rips\FUNK @ SOUL\L.T.D. - Something to Love (75021 3148 2)\06 – If You're In Need.wav
Pre-gap length 0:00:01.24
Peak level 93.2 %
Track quality 100.0 %
Test CRC 81CA6E79
Copy CRC 81CA6E79
Accurately ripped (confidence 1) [5B04D0F3]
Copy OK
Track 7
Filename E:\!Rips\FUNK @ SOUL\L.T.D. - Something to Love (75021 3148 2)\07 – Never Get Enough Of Your Love.wav
Pre-gap length 0:00:01.40
Peak level 91.2 %
Track quality 100.0 %
Test CRC 915FF13D
Copy CRC 915FF13D
Accurately ripped (confidence 1) [372423E6]
Copy OK
Track 8
Filename E:\!Rips\FUNK @ SOUL\L.T.D. - Something to Love (75021 3148 2)\08 – Make Someone Smile.wav
Pre-gap length 0:00:01.46
Peak level 81.5 %
Track quality 100.0 %
Test CRC EE82EA61
Copy CRC EE82EA61
Accurately ripped (confidence 1) [C7160819]
Copy OK
Track 9
Filename E:\!Rips\FUNK @ SOUL\L.T.D. - Something to Love (75021 3148 2)\09 – Material Things.wav
Peak level 99.8 %
Track quality 100.0 %
Test CRC AD689162
Copy CRC AD689162
Accurately ripped (confidence 1) [5012BB28]
Copy OK
All tracks accurately ripped
No errors occurred
End of status report
 
CUE
REM GENRE Funk
REM DATE 1977
REM DISCID 7C093609
REM COMMENT "ExactAudioCopy v0.99pb5"
PERFORMER "L.T.D."
TITLE "Something To Love"
FILE "01 – Age Of The Showdown.wav" WAVE
TRACK 01 AUDIO
TITLE "Age Of The Showdown"
PERFORMER "L.T.D."
INDEX 01 00:00:00
FILE "02 – (Won't Cha) Stay With Me.wav" WAVE
TRACK 02 AUDIO
TITLE "(Won't Cha) Stay With Me"
PERFORMER "L.T.D."
INDEX 01 00:00:00
TRACK 03 AUDIO
TITLE "(Every Time I Turn Around) Back In Love Again"
PERFORMER "L.T.D."
INDEX 00 03:58:20
FILE "03 – (Every Time I Turn Around) Back In Love Again.wav" WAVE
INDEX 01 00:00:00
FILE "04 – You Come First At Last.wav" WAVE
TRACK 04 AUDIO
TITLE "You Come First At Last"
PERFORMER "L.T.D."
INDEX 01 00:00:00
FILE "05 – We Party Hearty.wav" WAVE
TRACK 05 AUDIO
TITLE "We Party Hearty"
PERFORMER "L.T.D."
INDEX 01 00:00:00
TRACK 06 AUDIO
TITLE "If You're In Need"
PERFORMER "L.T.D."
INDEX 00 05:15:40
FILE "06 – If You're In Need.wav" WAVE
INDEX 01 00:00:00
TRACK 07 AUDIO
TITLE "Never Get Enough Of Your Love"
PERFORMER "L.T.D."
INDEX 00 03:39:52
FILE "07 – Never Get Enough Of Your Love.wav" WAVE
INDEX 01 00:00:00
TRACK 08 AUDIO
TITLE "Make Someone Smile"
PERFORMER "L.T.D."
INDEX 00 03:47:42
FILE "08 – Make Someone Smile.wav" WAVE
INDEX 01 00:00:00
FILE "09 – Material Things.wav" WAVE
TRACK 09 AUDIO
TITLE "Material Things"
PERFORMER "L.T.D."
INDEX 01 00:00:00
Приватный:
Нет (DHT включён)
Размер:
688.90 Мб (722,365,912 байт) » файлов: 52
Участники:
0 раздают, 0 качают (0 участников всего)
Внешние участники:
3 раздают, 1 качают (4 участников всего) [ Обновить ]
Никого нет на раздаче - пишите личное сообщение M0p94ok
No seeders - write personal message to M0p94ok
03:09
24
Нет комментариев. Ваш будет первым!