Поиск

(Funk, Soul) Leon Thomas - Blues And The Soulful Truth (74321851532) - 1978 (remaster 2001), FLAC (tracks+.cue), lossless

(Funk, Soul) Leon Thomas - Blues And The Soulful Truth (74321851532) - 1978 (remaster 2001), FLAC (tracks+.cue), lossless
Треклист:
Leon Thomas - Blues And The Soulful Truth
Жанр: Funk, Soul
Год выпуска диска: 1978 (remaster 2001)
Производитель диска: BMG
Аудио кодек: FLAC
Тип рипа: tracks+.cue
Битрейт аудио: lossless
Продолжительность: 00:42:40

1. Leon Thomas - Let's go down to lucy (4:27)
2. Leon Thomas - L-O-V-E (2:54)
3. Leon Thomas - Gypsy Queen (10:19)
4. Leon Thomas - Love Each Other (3:16)
5. Leon Thomas - Shape Your Mind to Die (5:22)
6. Leon Thomas - Boom-Boom-Boom (4:52)
7. Leon Thomas - China Doll (5:07)
8. Leon Thomas - C.C. Rider (6:23)
Собственноручный рип с оригинального диска от funky_cat!
 
Log EAC
Exact Audio Copy V0.99 prebeta 5 from 4. May 2009
EAC extraction logfile from 13. March 2010, 12:09
Leon Thomas / Blues and the Soulful Truth
Used drive : ASUS DRW-1608P2 Adapter: 0 ID: 0
Read mode : Secure
Utilize accurate stream : Yes
Defeat audio cache : Yes
Make use of C2 pointers : No
Read offset correction : 48
Overread into Lead-In and Lead-Out : No
Fill up missing offset samples with silence : Yes
Delete leading and trailing silent blocks : No
Null samples used in CRC calculations : Yes
Used interface : Native Win32 interface for Win NT & 2000
Gap handling : Appended to previous track
Used output format : User Defined Encoder
Selected bitrate : 1024 kBit/s
Quality : High
Add ID3 tag : No
Command line compressor : C:\Program Files\FLAC\flac.exe
Additional command line options : -5 -V -T "ARTIST=%a" -T "TITLE=%t" -T "ALBUM=%g" -T "DATE=%y" -T "TRACKNUMBER=%n" -T "GENRE=%m" -T "COMMENT=Ripped by andygrakoff aka yetiisyou" %s
TOC of the extracted CD
Track | Start | Length | Start sector | End sector
---------------------------------------------------------
1 | 0:00.00 | 4:27.39 | 0 | 20063
2 | 4:27.39 | 2:54.45 | 20064 | 33158
3 | 7:22.09 | 10:19.39 | 33159 | 79622
4 | 17:41.48 | 3:16.47 | 79623 | 94369
5 | 20:58.20 | 5:22.56 | 94370 | 118575
6 | 26:21.01 | 4:52.67 | 118576 | 140542
7 | 31:13.68 | 5:07.60 | 140543 | 163627
8 | 36:21.53 | 6:23.33 | 163628 | 192385
Track 1
Filename E:\!Rips\FUNK @ SOUL\Leon Thomas - Blues And The Soulful Truth (74321851532)\01 – Let's go down to lucy.wav
Pre-gap length 0:00:02.00
Peak level 99.8 %
Track quality 100.0 %
Test CRC 18D9A6A5
Copy CRC 18D9A6A5
Accurately ripped (confidence 2) [115F4EC2]
Copy OK
Track 2
Filename E:\!Rips\FUNK @ SOUL\Leon Thomas - Blues And The Soulful Truth (74321851532)\02 – L-O-V-E.wav
Pre-gap length 0:00:01.78
Peak level 100.0 %
Track quality 100.0 %
Test CRC B4198EE9
Copy CRC B4198EE9
Accurately ripped (confidence 2) [57251F92]
Copy OK
Track 3
Filename E:\!Rips\FUNK @ SOUL\Leon Thomas - Blues And The Soulful Truth (74321851532)\03 – Gypsy Queen.wav
Pre-gap length 0:00:01.34
Peak level 100.0 %
Track quality 100.0 %
Test CRC DC85E446
Copy CRC DC85E446
Accurately ripped (confidence 2) [9591E736]
Copy OK
Track 4
Filename E:\!Rips\FUNK @ SOUL\Leon Thomas - Blues And The Soulful Truth (74321851532)\04 – Love Each Other.wav
Pre-gap length 0:00:00.54
Peak level 100.0 %
Track quality 100.0 %
Test CRC 0692F122
Copy CRC 0692F122
Accurately ripped (confidence 2) [4E8BEA8E]
Copy OK
Track 5
Filename E:\!Rips\FUNK @ SOUL\Leon Thomas - Blues And The Soulful Truth (74321851532)\05 – Shape Your Mind to Die.wav
Pre-gap length 0:00:02.09
Peak level 100.0 %
Track quality 99.9 %
Test CRC 8A1660B2
Copy CRC 8A1660B2
Accurately ripped (confidence 2) [9C56A94A]
Copy OK
Track 6
Filename E:\!Rips\FUNK @ SOUL\Leon Thomas - Blues And The Soulful Truth (74321851532)\06 – Boom-Boom-Boom.wav
Pre-gap length 0:00:01.57
Peak level 100.0 %
Track quality 99.9 %
Test CRC 65FCB411
Copy CRC 65FCB411
Accurately ripped (confidence 2) [9DD69B60]
Copy OK
Track 7
Filename E:\!Rips\FUNK @ SOUL\Leon Thomas - Blues And The Soulful Truth (74321851532)\07 – China Doll.wav
Pre-gap length 0:00:01.06
Peak level 100.0 %
Track quality 99.9 %
Test CRC 3332851B
Copy CRC 3332851B
Accurately ripped (confidence 2) [FA18DF01]
Copy OK
Track 8
Filename E:\!Rips\FUNK @ SOUL\Leon Thomas - Blues And The Soulful Truth (74321851532)\08 – C.C. Rider.wav
Pre-gap length 0:00:01.68
Peak level 100.0 %
Track quality 100.0 %
Test CRC B0BA08AD
Copy CRC B0BA08AD
Accurately ripped (confidence 2) [FCB772F9]
Copy OK
All tracks accurately ripped
No errors occurred
End of status report
 
CUE
REM GENRE Jazz+Funk
REM DATE 1972
REM DISCID 660A0508
REM COMMENT "ExactAudioCopy v0.99pb5"
PERFORMER "Leon Thomas"
TITLE "Blues and the Soulful Truth"
FILE "01 – Let's go down to lucy.wav" WAVE
TRACK 01 AUDIO
TITLE "Let's go down to lucy"
PERFORMER "Leon Thomas"
INDEX 01 00:00:00
TRACK 02 AUDIO
TITLE "L-O-V-E"
PERFORMER "Leon Thomas"
INDEX 00 04:25:55
FILE "02 – L-O-V-E.wav" WAVE
INDEX 01 00:00:00
TRACK 03 AUDIO
TITLE "Gypsy Queen"
PERFORMER "Leon Thomas"
INDEX 00 02:53:19
FILE "03 – Gypsy Queen.wav" WAVE
INDEX 01 00:00:00
TRACK 04 AUDIO
TITLE "Love Each Other"
PERFORMER "Leon Thomas"
INDEX 00 10:18:73
FILE "04 – Love Each Other.wav" WAVE
INDEX 01 00:00:00
TRACK 05 AUDIO
TITLE "Shape Your Mind to Die"
PERFORMER "Leon Thomas"
INDEX 00 03:14:40
FILE "05 – Shape Your Mind to Die.wav" WAVE
INDEX 01 00:00:00
TRACK 06 AUDIO
TITLE "Boom-Boom-Boom"
PERFORMER "Leon Thomas"
INDEX 00 05:21:13
FILE "06 – Boom-Boom-Boom.wav" WAVE
INDEX 01 00:00:00
TRACK 07 AUDIO
TITLE "China Doll"
PERFORMER "Leon Thomas"
INDEX 00 04:51:62
FILE "07 – China Doll.wav" WAVE
INDEX 01 00:00:00
TRACK 08 AUDIO
TITLE "C.C. Rider"
PERFORMER "Leon Thomas"
INDEX 00 05:06:09
FILE "08 – C.C. Rider.wav" WAVE
INDEX 01 00:00:00
Приватный:
Нет (DHT включён)
Размер:
289.58 Мб (303,650,925 байт) » файлов: 17
Участники:
0 раздают, 0 качают (0 участников всего)
Внешние участники:
3 раздают, 1 качают (4 участников всего) [ Обновить ]
03:10
32
Нет комментариев. Ваш будет первым!