Поиск

(Funk, Soul, Jazz) Leon Ware - 3 albums (Inside Is Love, Leon Ware, Musical Massage), 1972-1982, FLAC (tracks+.cue), lossless

(Funk, Soul, Jazz) Leon Ware - 3 albums (Inside Is Love, Leon Ware, Musical Massage), 1972-1982, FLAC (tracks+.cue), lossless
Треклист:
Leon Ware - 3 albums (Inside Is Love, Leon Ware, Musical Massage)

Жанр: Funk, Soul, Jazz
Год: 1976-1982 (all remastered)
Аудио кодек: FLAC
Тип рипа: tracks+.cue
Битрейт аудио: lossless
Продолжительность: 02:07:56
Собственноручные рипы с оригинальных дисков от funky_cat!
 
Inside Is Love 1979 (EXCDM5) 1999 rem
Продолжительность: 35 min 59 sec
1. Leon Ware - What's Your Name (4:11)
2. Leon Ware - Inside Your Love (4:34)
3. Leon Ware - Love Is a Simple Thing (3:03)
4. Leon Ware - Small Cafу (3:45)
5. Leon Ware - Club Sashay (3:29)
6. Leon Ware - Try It Out (3:57)
7. Leon Ware - Love Will Run Away (4:37)
8. Leon Ware - On the Island (4:30)
9. Leon Ware - Hungry (3:53)
 
Log EAC
Exact Audio Copy V0.99 prebeta 5 from 4. May 2009
EAC extraction logfile from 12. March 2010, 23:57
Leon Ware / Inside Is Love
Used drive : Optiarc DVD RW AD-7170A Adapter: 0 ID: 1
Read mode : Secure
Utilize accurate stream : Yes
Defeat audio cache : Yes
Make use of C2 pointers : No
Read offset correction : 48
Overread into Lead-In and Lead-Out : No
Fill up missing offset samples with silence : Yes
Delete leading and trailing silent blocks : No
Null samples used in CRC calculations : Yes
Used interface : Native Win32 interface for Win NT & 2000
Gap handling : Appended to previous track
Used output format : User Defined Encoder
Selected bitrate : 1024 kBit/s
Quality : High
Add ID3 tag : No
Command line compressor : C:\Program Files\FLAC\flac.exe
Additional command line options : -5 -V -T "ARTIST=%a" -T "TITLE=%t" -T "ALBUM=%g" -T "DATE=%y" -T "TRACKNUMBER=%n" -T "GENRE=%m" -T "COMMENT=Ripped by andygrakoff aka yetiisyou" %s
TOC of the extracted CD
Track | Start | Length | Start sector | End sector
---------------------------------------------------------
1 | 0:00.00 | 4:11.62 | 0 | 18886
2 | 4:11.62 | 4:34.55 | 18887 | 39491
3 | 8:46.42 | 3:03.20 | 39492 | 53236
4 | 11:49.62 | 3:45.20 | 53237 | 70131
5 | 15:35.07 | 3:29.28 | 70132 | 85834
6 | 19:04.35 | 3:57.37 | 85835 | 103646
7 | 23:01.72 | 4:37.10 | 103647 | 124431
8 | 27:39.07 | 4:30.58 | 124432 | 144739
9 | 32:09.65 | 3:53.00 | 144740 | 162214
Track 1
Filename E:\!Rips\FUNK @ SOUL\Leon Ware - Inside Is Love\01 – What's Your Name.wav
Pre-gap length 0:00:02.00
Peak level 100.0 %
Track quality 100.0 %
Test CRC 61D4B6B9
Copy CRC 61D4B6B9
Track not present in AccurateRip database
Copy OK
Track 2
Filename E:\!Rips\FUNK @ SOUL\Leon Ware - Inside Is Love\02 – Inside Your Love.wav
Peak level 100.0 %
Track quality 100.0 %
Test CRC D6C39CE1
Copy CRC D6C39CE1
Track not present in AccurateRip database
Copy OK
Track 3
Filename E:\!Rips\FUNK @ SOUL\Leon Ware - Inside Is Love\03 – Love Is a Simple Thing.wav
Peak level 100.0 %
Track quality 99.9 %
Test CRC D0FE61D8
Copy CRC D0FE61D8
Track not present in AccurateRip database
Copy OK
Track 4
Filename E:\!Rips\FUNK @ SOUL\Leon Ware - Inside Is Love\04 – Small Cafу.wav
Peak level 94.2 %
Track quality 100.0 %
Test CRC 84CC5D71
Copy CRC 84CC5D71
Track not present in AccurateRip database
Copy OK
Track 5
Filename E:\!Rips\FUNK @ SOUL\Leon Ware - Inside Is Love\05 – Club Sashay.wav
Peak level 100.0 %
Track quality 100.0 %
Test CRC D9087829
Copy CRC D9087829
Track not present in AccurateRip database
Copy OK
Track 6
Filename E:\!Rips\FUNK @ SOUL\Leon Ware - Inside Is Love\06 – Try It Out.wav
Peak level 100.0 %
Track quality 100.0 %
Test CRC 744CFA50
Copy CRC 744CFA50
Track not present in AccurateRip database
Copy OK
Track 7
Filename E:\!Rips\FUNK @ SOUL\Leon Ware - Inside Is Love\07 – Love Will Run Away.wav
Peak level 100.0 %
Track quality 100.0 %
Test CRC A697A9B1
Copy CRC A697A9B1
Track not present in AccurateRip database
Copy OK
Track 8
Filename E:\!Rips\FUNK @ SOUL\Leon Ware - Inside Is Love\08 – On the Island.wav
Peak level 100.0 %
Track quality 100.0 %
Test CRC 931AFFE5
Copy CRC 931AFFE5
Track not present in AccurateRip database
Copy OK
Track 9
Filename E:\!Rips\FUNK @ SOUL\Leon Ware - Inside Is Love\09 – Hungry.wav
Peak level 100.0 %
Track quality 100.0 %
Test CRC 2374E6C0
Copy CRC 2374E6C0
Track not present in AccurateRip database
Copy OK
None of the tracks are present in the AccurateRip database
No errors occurred
End of status report
 
CUE
REM DATE 1979
REM DISCID 6E087209
REM COMMENT "ExactAudioCopy v0.99pb5"
PERFORMER "Leon Ware"
TITLE "Inside Is Love"
FILE "01 – What's Your Name.wav" WAVE
TRACK 01 AUDIO
TITLE "What's Your Name "
PERFORMER "Leon Ware"
INDEX 01 00:00:00
FILE "02 – Inside Your Love.wav" WAVE
TRACK 02 AUDIO
TITLE "Inside Your Love"
PERFORMER "Leon Ware"
INDEX 01 00:00:00
FILE "03 – Love Is a Simple Thing.wav" WAVE
TRACK 03 AUDIO
TITLE "Love Is a Simple Thing"
PERFORMER "Leon Ware"
INDEX 01 00:00:00
FILE "04 – Small Cafу.wav" WAVE
TRACK 04 AUDIO
TITLE "Small Cafу"
PERFORMER "Leon Ware"
INDEX 01 00:00:00
FILE "05 – Club Sashay.wav" WAVE
TRACK 05 AUDIO
TITLE "Club Sashay"
PERFORMER "Leon Ware"
INDEX 01 00:00:00
FILE "06 – Try It Out.wav" WAVE
TRACK 06 AUDIO
TITLE "Try It Out"
PERFORMER "Leon Ware"
INDEX 01 00:00:00
FILE "07 – Love Will Run Away.wav" WAVE
TRACK 07 AUDIO
TITLE "Love Will Run Away"
PERFORMER "Leon Ware"
INDEX 01 00:00:00
FILE "08 – On the Island.wav" WAVE
TRACK 08 AUDIO
TITLE "On the Island"
PERFORMER "Leon Ware"
INDEX 01 00:00:00
FILE "09 – Hungry.wav" WAVE
TRACK 09 AUDIO
TITLE "Hungry"
PERFORMER "Leon Ware"
INDEX 01 00:00:00
 
Leon Ware 1972 (2001 rem)
Продолжительность: 30 min 42 sec
1. Leon Ware - The Spirit Never Dies (2:49)
2. Leon Ware - Able, Qualified, & Ready (3:16)
3. Leon Ware - Why Be Alone (3:33)
4. Leon Ware - Mr. Evolution (2:59)
5. Leon Ware - Nothing's Sweeter Than My Baby's Love (2:45)
6. Leon Ware - What's Your World (4:26)
7. Leon Ware - I Know How It Feels (3:25)
8. Leon Ware - It's Just A Natural Thing (3:28)
9. Leon Ware - Tamed To Be Wild (4:01)
 
Log EAC
Exact Audio Copy V0.99 prebeta 5 from 4. May 2009
EAC extraction logfile from 6. March 2010, 21:56
Leon Ware / Leon Ware
Used drive : ASUS DRW-1608P2 Adapter: 0 ID: 0
Read mode : Secure
Utilize accurate stream : Yes
Defeat audio cache : Yes
Make use of C2 pointers : No
Read offset correction : 48
Overread into Lead-In and Lead-Out : No
Fill up missing offset samples with silence : Yes
Delete leading and trailing silent blocks : No
Null samples used in CRC calculations : Yes
Used interface : Native Win32 interface for Win NT & 2000
Gap handling : Appended to previous track
Used output format : User Defined Encoder
Selected bitrate : 320 kBit/s
Quality : High
Add ID3 tag : No
Command line compressor : C:\Program Files\FLAC\flac.exe
Additional command line options : -5 -V -T "ARTIST=%a" -T "TITLE=%t" -T "ALBUM=%g" -T "DATE=%y" -T "TRACKNUMBER=%n" -T "GENRE=%m" -T "COMMENT=Ripped By andygrakoff aka yetiisyou" %s
TOC of the extracted CD
Track | Start | Length | Start sector | End sector
---------------------------------------------------------
1 | 0:00.00 | 2:49.50 | 0 | 12724
2 | 2:49.50 | 3:16.62 | 12725 | 27486
3 | 6:06.37 | 3:33.13 | 27487 | 43474
4 | 9:39.50 | 2:59.12 | 43475 | 56911
5 | 12:38.62 | 2:45.00 | 56912 | 69286
6 | 15:23.62 | 4:26.38 | 69287 | 89274
7 | 19:50.25 | 3:25.25 | 89275 | 104674
8 | 23:15.50 | 3:28.00 | 104675 | 120274
9 | 26:43.50 | 4:01.62 | 120275 | 138411
Track 1
Filename E:\!Rips\Leon Ware - Leon Ware 1972\01. Leon Ware – The Spirit Never Dies.wav
Pre-gap length 0:00:02.00
Peak level 99.9 %
Track quality 99.9 %
Test CRC 9C3A50F3
Copy CRC 9C3A50F3
Track not present in AccurateRip database
Copy OK
Track 2
Filename E:\!Rips\Leon Ware - Leon Ware 1972\02. Leon Ware – Able, Qualified, & Ready.wav
Peak level 97.3 %
Track quality 100.0 %
Test CRC 98696F4E
Copy CRC 98696F4E
Track not present in AccurateRip database
Copy OK
Track 3
Filename E:\!Rips\Leon Ware - Leon Ware 1972\03. Leon Ware – Why Be Alone.wav
Peak level 94.6 %
Track quality 99.9 %
Test CRC 1DE62F8A
Copy CRC 1DE62F8A
Track not present in AccurateRip database
Copy OK
Track 4
Filename E:\!Rips\Leon Ware - Leon Ware 1972\04. Leon Ware – Mr. Evolution.wav
Peak level 91.5 %
Track quality 100.0 %
Test CRC 44B982EB
Copy CRC 44B982EB
Track not present in AccurateRip database
Copy OK
Track 5
Filename E:\!Rips\Leon Ware - Leon Ware 1972\05. Leon Ware – Nothing's Sweeter Than My Baby's Love.wav
Peak level 98.3 %
Track quality 100.0 %
Test CRC 973C6164
Copy CRC 973C6164
Track not present in AccurateRip database
Copy OK
Track 6
Filename E:\!Rips\Leon Ware - Leon Ware 1972\06. Leon Ware – What's Your World.wav
Peak level 94.6 %
Track quality 100.0 %
Test CRC 7376EEA6
Copy CRC 7376EEA6
Track not present in AccurateRip database
Copy OK
Track 7
Filename E:\!Rips\Leon Ware - Leon Ware 1972\07. Leon Ware – I Know How It Feels.wav
Peak level 93.1 %
Track quality 100.0 %
Test CRC C8F08193
Copy CRC C8F08193
Track not present in AccurateRip database
Copy OK
Track 8
Filename E:\!Rips\Leon Ware - Leon Ware 1972\08. Leon Ware – It's Just A Natural Thing.wav
Peak level 82.0 %
Track quality 100.0 %
Test CRC 0D8EEA04
Copy CRC 0D8EEA04
Track not present in AccurateRip database
Copy OK
Track 9
Filename E:\!Rips\Leon Ware - Leon Ware 1972\09. Leon Ware – Tamed To Be Wild.wav
Peak level 99.5 %
Track quality 100.0 %
Test CRC 4DF66C79
Copy CRC 4DF66C79
Track not present in AccurateRip database
Copy OK
None of the tracks are present in the AccurateRip database
No errors occurred
End of status report
 
CUE
REM GENRE Soul
REM DATE 1972
REM DISCID 74073509
REM COMMENT "ExactAudioCopy v0.99pb5"
PERFORMER "Leon Ware"
TITLE "Leon Ware"
FILE "01. Leon Ware – The Spirit Never Dies.wav" WAVE
TRACK 01 AUDIO
TITLE "The Spirit Never Dies"
PERFORMER "Leon Ware"
INDEX 01 00:00:00
FILE "02. Leon Ware – Able, Qualified, & Ready.wav" WAVE
TRACK 02 AUDIO
TITLE "Able, Qualified, & Ready"
PERFORMER "Leon Ware"
INDEX 01 00:00:00
FILE "03. Leon Ware – Why Be Alone.wav" WAVE
TRACK 03 AUDIO
TITLE "Why Be Alone"
PERFORMER "Leon Ware"
INDEX 01 00:00:00
FILE "04. Leon Ware – Mr. Evolution.wav" WAVE
TRACK 04 AUDIO
TITLE "Mr. Evolution"
PERFORMER "Leon Ware"
INDEX 01 00:00:00
FILE "05. Leon Ware – Nothing's Sweeter Than My Baby's Love.wav" WAVE
TRACK 05 AUDIO
TITLE "Nothing's Sweeter Than My Baby's Love"
PERFORMER "Leon Ware"
INDEX 01 00:00:00
FILE "06. Leon Ware – What's Your World.wav" WAVE
TRACK 06 AUDIO
TITLE "What's Your World"
PERFORMER "Leon Ware"
INDEX 01 00:00:00
FILE "07. Leon Ware – I Know How It Feels.wav" WAVE
TRACK 07 AUDIO
TITLE "I Know How It Feels"
PERFORMER "Leon Ware"
INDEX 01 00:00:00
FILE "08. Leon Ware – It's Just A Natural Thing.wav" WAVE
TRACK 08 AUDIO
TITLE "It's Just A Natural Thing"
PERFORMER "Leon Ware"
INDEX 01 00:00:00
FILE "09. Leon Ware – Tamed To Be Wild.wav" WAVE
TRACK 09 AUDIO
TITLE "Tamed To Be Wild"
PERFORMER "Leon Ware"
INDEX 01 00:00:00
 
Musical Massage 1976 - (B0000789-02) (2003 rem)
Продолжительность: 56 min 41 sec
1. Leon Ware - Learning How To Love You (3:26)
2. Leon Ware - Instant Love (3:28)
3. Leon Ware - Body Heat (4:45)
4. Leon Ware - Share Your Love (3:25)
5. Leon Ware - Holiday (3:27)
6. Leon Ware - Phantom Lover (3:45)
7. Leon Ware - Journey Into You (4:06)
8. Leon Ware - Musical Message (3:47)
9. Leon Ware - French Waltz (1:53)
10. Leon Ware - Turn Out The Light (3:55)
11. Leon Ware - I Wanna Be Where You Are (3:36)
12. Leon Ware - Comfort (6:16)
13. Leon Ware - Long Time No See (3:48)
14. Leon Ware - Don't You Wanna Come (3:43)
15. Leon Ware - You Are The Way You Are (3:21)
 
Log EAC
Exact Audio Copy V0.99 prebeta 5 from 4. May 2009
EAC extraction logfile from 12. March 2010, 21:34
Leon Ware / Musical Massage
Used drive : ASUS DRW-1608P2 Adapter: 0 ID: 0
Read mode : Secure
Utilize accurate stream : Yes
Defeat audio cache : Yes
Make use of C2 pointers : No
Read offset correction : 48
Overread into Lead-In and Lead-Out : No
Fill up missing offset samples with silence : Yes
Delete leading and trailing silent blocks : No
Null samples used in CRC calculations : Yes
Used interface : Native Win32 interface for Win NT & 2000
Gap handling : Appended to previous track
Used output format : User Defined Encoder
Selected bitrate : 1024 kBit/s
Quality : High
Add ID3 tag : No
Command line compressor : C:\Program Files\FLAC\flac.exe
Additional command line options : -5 -V -T "ARTIST=%a" -T "TITLE=%t" -T "ALBUM=%g" -T "DATE=%y" -T "TRACKNUMBER=%n" -T "GENRE=%m" -T "COMMENT=Ripped by andygrakoff aka yetiisyou" %s
TOC of the extracted CD
Track | Start | Length | Start sector | End sector
---------------------------------------------------------
1 | 0:00.00 | 3:26.38 | 0 | 15487
2 | 3:26.38 | 3:28.49 | 15488 | 31136
3 | 6:55.12 | 4:45.01 | 31137 | 52512
4 | 11:40.13 | 3:25.12 | 52513 | 67899
5 | 15:05.25 | 3:27.12 | 67900 | 83436
6 | 18:32.37 | 3:45.13 | 83437 | 100324
7 | 22:17.50 | 4:06.62 | 100325 | 118836
8 | 26:24.37 | 3:47.51 | 118837 | 135912
9 | 30:12.13 | 1:53.21 | 135913 | 144408
10 | 32:05.34 | 3:55.54 | 144409 | 162087
11 | 36:01.13 | 3:36.00 | 162088 | 178287
12 | 39:37.13 | 6:16.34 | 178288 | 206521
13 | 45:53.47 | 3:48.18 | 206522 | 223639
14 | 49:41.65 | 3:43.66 | 223640 | 240430
15 | 53:25.56 | 3:21.64 | 240431 | 255569
Track 1
Filename E:\!Rips\FUNK @ SOUL\Leon Ware - Musical Massage (B0000789-02)\01 – Learning How To Love You.wav
Pre-gap length 0:00:02.00
Peak level 100.0 %
Track quality 100.0 %
Test CRC 4DEEAC7D
Copy CRC 4DEEAC7D
Accurately ripped (confidence 6) [14ED1684]
Copy OK
Track 2
Filename E:\!Rips\FUNK @ SOUL\Leon Ware - Musical Massage (B0000789-02)\02 – Instant Love.wav
Pre-gap length 0:00:01.14
Peak level 99.9 %
Track quality 100.0 %
Test CRC 89236C69
Copy CRC 89236C69
Accurately ripped (confidence 6) [CF690283]
Copy OK
Track 3
Filename E:\!Rips\FUNK @ SOUL\Leon Ware - Musical Massage (B0000789-02)\03 – Body Heat.wav
Pre-gap length 0:00:01.00
Peak level 98.5 %
Track quality 100.0 %
Test CRC DCAC7E9A
Copy CRC DCAC7E9A
Accurately ripped (confidence 6) [9B404D90]
Copy OK
Track 4
Filename E:\!Rips\FUNK @ SOUL\Leon Ware - Musical Massage (B0000789-02)\04 – Share Your Love.wav
Pre-gap length 0:00:01.62
Peak level 99.9 %
Track quality 100.0 %
Test CRC 788B5041
Copy CRC 788B5041
Accurately ripped (confidence 6) [C3A44BA2]
Copy OK
Track 5
Filename E:\!Rips\FUNK @ SOUL\Leon Ware - Musical Massage (B0000789-02)\05 – Holiday.wav
Pre-gap length 0:00:01.41
Peak level 99.1 %
Track quality 100.0 %
Test CRC 481E68BE
Copy CRC 481E68BE
Accurately ripped (confidence 6) [AC579C60]
Copy OK
Track 6
Filename E:\!Rips\FUNK @ SOUL\Leon Ware - Musical Massage (B0000789-02)\06 – Phantom Lover.wav
Pre-gap length 0:00:01.50
Peak level 94.0 %
Track quality 100.0 %
Test CRC 33864E91
Copy CRC 33864E91
Accurately ripped (confidence 6) [CB4C038A]
Copy OK
Track 7
Filename E:\!Rips\FUNK @ SOUL\Leon Ware - Musical Massage (B0000789-02)\07 – Journey Into You.wav
Pre-gap length 0:00:01.76
Peak level 98.7 %
Track quality 100.0 %
Test CRC D6C8D465
Copy CRC D6C8D465
Accurately ripped (confidence 6) [FB1C0F4B]
Copy OK
Track 8
Filename E:\!Rips\FUNK @ SOUL\Leon Ware - Musical Massage (B0000789-02)\08 – Musical Message.wav
Pre-gap length 0:00:01.18
Peak level 100.0 %
Track quality 100.0 %
Test CRC F4AAA02C
Copy CRC F4AAA02C
Accurately ripped (confidence 6) [CB4E690A]
Copy OK
Track 9
Filename E:\!Rips\FUNK @ SOUL\Leon Ware - Musical Massage (B0000789-02)\09 – French Waltz.wav
Pre-gap length 0:00:01.66
Peak level 99.9 %
Track quality 100.0 %
Test CRC 5EAE3058
Copy CRC 5EAE3058
Accurately ripped (confidence 6) [7EB6FCD7]
Copy OK
Track 10
Filename E:\!Rips\FUNK @ SOUL\Leon Ware - Musical Massage (B0000789-02)\10 – Turn Out The Light.wav
Pre-gap length 0:00:01.77
Peak level 88.8 %
Track quality 100.0 %
Test CRC C4DD9137
Copy CRC C4DD9137
Accurately ripped (confidence 6) [DDCC9CE7]
Copy OK
Track 11
Filename E:\!Rips\FUNK @ SOUL\Leon Ware - Musical Massage (B0000789-02)\11 – I Wanna Be Where You Are.wav
Pre-gap length 0:00:03.50
Peak level 98.4 %
Track quality 100.0 %
Test CRC B069DDC7
Copy CRC B069DDC7
Accurately ripped (confidence 6) [7EFF3548]
Copy OK
Track 12
Filename E:\!Rips\FUNK @ SOUL\Leon Ware - Musical Massage (B0000789-02)\12 – Comfort.wav
Pre-gap length 0:00:01.97
Peak level 99.4 %
Track quality 100.0 %
Test CRC A78F5D2B
Copy CRC A78F5D2B
Accurately ripped (confidence 6) [84B6B423]
Copy OK
Track 13
Filename E:\!Rips\FUNK @ SOUL\Leon Ware - Musical Massage (B0000789-02)\13 – Long Time No See.wav
Pre-gap length 0:00:01.50
Peak level 92.5 %
Track quality 100.0 %
Test CRC A4079AB5
Copy CRC A4079AB5
Accurately ripped (confidence 6) [1FF3D4F0]
Copy OK
Track 14
Filename E:\!Rips\FUNK @ SOUL\Leon Ware - Musical Massage (B0000789-02)\14 – Don't You Wanna Come.wav
Pre-gap length 0:00:02.33
Peak level 97.0 %
Track quality 100.0 %
Test CRC 90DFC97A
Copy CRC 90DFC97A
Accurately ripped (confidence 6) [BF2CD8A6]
Copy OK
Track 15
Filename E:\!Rips\FUNK @ SOUL\Leon Ware - Musical Massage (B0000789-02)\15 – You Are The Way You Are.wav
Pre-gap length 0:00:01.38
Peak level 99.9 %
Track quality 100.0 %
Test CRC 1289EBFE
Copy CRC 1289EBFE
Accurately ripped (confidence 6) [22B96051]
Copy OK
All tracks accurately ripped
No errors occurred
End of status report
 
CUE
REM GENRE Funk
REM DATE 1976
REM DISCID D30D4F0F
REM COMMENT "ExactAudioCopy v0.99pb5"
PERFORMER "Leon Ware"
TITLE "Musical Massage"
FILE "01 – Learning How To Love You.wav" WAVE
TRACK 01 AUDIO
TITLE "Learning How To Love You"
PERFORMER "Leon Ware"
INDEX 01 00:00:00
TRACK 02 AUDIO
TITLE "Instant Love"
PERFORMER "Leon Ware"
INDEX 00 03:25:27
FILE "02 – Instant Love.wav" WAVE
INDEX 01 00:00:00
TRACK 03 AUDIO
TITLE "Body Heat"
PERFORMER "Leon Ware"
INDEX 00 03:27:49
FILE "03 – Body Heat.wav" WAVE
INDEX 01 00:00:00
TRACK 04 AUDIO
TITLE "Share Your Love"
PERFORMER "Leon Ware"
INDEX 00 04:43:29
FILE "04 – Share Your Love.wav" WAVE
INDEX 01 00:00:00
TRACK 05 AUDIO
TITLE "Holiday"
PERFORMER "Leon Ware"
INDEX 00 03:23:56
FILE "05 – Holiday.wav" WAVE
INDEX 01 00:00:00
TRACK 06 AUDIO
TITLE "Phantom Lover"
PERFORMER "Leon Ware"
INDEX 00 03:25:49
FILE "06 – Phantom Lover.wav" WAVE
INDEX 01 00:00:00
TRACK 07 AUDIO
TITLE "Journey Into You"
PERFORMER "Leon Ware"
INDEX 00 03:43:31
FILE "07 – Journey Into You.wav" WAVE
INDEX 01 00:00:00
TRACK 08 AUDIO
TITLE "Musical Message"
PERFORMER "Leon Ware"
INDEX 00 04:05:48
FILE "08 – Musical Message.wav" WAVE
INDEX 01 00:00:00
TRACK 09 AUDIO
TITLE "French Waltz"
PERFORMER "Leon Ware"
INDEX 00 03:46:01
FILE "09 – French Waltz.wav" WAVE
INDEX 01 00:00:00
TRACK 10 AUDIO
TITLE "Turn Out The Light"
PERFORMER "Leon Ware"
INDEX 00 01:51:38
FILE "10 – Turn Out The Light.wav" WAVE
INDEX 01 00:00:00
TRACK 11 AUDIO
TITLE "I Wanna Be Where You Are "
PERFORMER "Leon Ware"
INDEX 00 03:52:16
FILE "11 – I Wanna Be Where You Are.wav" WAVE
INDEX 01 00:00:00
TRACK 12 AUDIO
TITLE "Comfort"
PERFORMER "Leon Ware"
INDEX 00 03:34:02
FILE "12 – Comfort.wav" WAVE
INDEX 01 00:00:00
TRACK 13 AUDIO
TITLE "Long Time No See"
PERFORMER "Leon Ware"
INDEX 00 06:14:71
FILE "13 – Long Time No See.wav" WAVE
INDEX 01 00:00:00
TRACK 14 AUDIO
TITLE "Don't You Wanna Come"
PERFORMER "Leon Ware"
INDEX 00 03:45:68
FILE "14 – Don't You Wanna Come.wav" WAVE
INDEX 01 00:00:00
TRACK 15 AUDIO
TITLE "You Are The Way You Are"
PERFORMER "Leon Ware"
INDEX 00 03:42:37
FILE "15 – You Are The Way You Are.wav" WAVE
INDEX 01 00:00:00
Приватный:
Нет (DHT включён)
Размер:
809.10 Мб (848,407,834 байт) » файлов: 58
Участники:
0 раздают, 0 качают (0 участников всего)
Внешние участники:
5 раздают, 2 качают (7 участников всего) [ Обновить ]
Никого нет на раздаче - пишите личное сообщение M0p94ok
No seeders - write personal message to M0p94ok
03:10
13
Нет комментариев. Ваш будет первым!