Поиск

(Soul, Jazz) Leroy Hutson - Closer To The Source (CPCD 8310) - 1978 (1997 rem), FLAC (tracks+.cue), lossless

(Soul, Jazz) Leroy Hutson - Closer To The Source (CPCD 8310) - 1978 (1997 rem), FLAC (tracks+.cue), lossless
Треклист:
Leroy Hutson - Closer To The Source
Жанр: Soul, Jazz
Год выпуска диска: 1978 (1997 remastered)
Производитель диска: Germany \ Charly Schallplatten GmbH
Аудио кодек: FLAC
Тип рипа: tracks+.cue
Битрейт аудио: lossless
Продолжительность: 00:37:40
1. Leroy Hutson - In The Mood (6:26)
2. Leroy Hutson - Where Did Love Go (4:05)
3. Leroy Hutson - They've Got Love (4:07)
4. Leroy Hutson - Get To This (3:43)
5. Leroy Hutson - Closer To The Source (6:12)
6. Leroy Hutson - Heaven Right Here (5:33)
7. Leroy Hutson - Everybody's A Masterpiece (3:04)
8. Leroy Hutson - You're A Winner (4:30)
Собственноручный рип с оригинального диска от funky_cat!
 
Log EAC
Exact Audio Copy V0.99 prebeta 5 from 4. May 2009
EAC extraction logfile from 13. March 2010, 3:35
Leroy Hutson / Closer To The Source
Used drive : Optiarc DVD RW AD-7170A Adapter: 0 ID: 1
Read mode : Secure
Utilize accurate stream : Yes
Defeat audio cache : Yes
Make use of C2 pointers : No
Read offset correction : 48
Overread into Lead-In and Lead-Out : No
Fill up missing offset samples with silence : Yes
Delete leading and trailing silent blocks : No
Null samples used in CRC calculations : Yes
Used interface : Native Win32 interface for Win NT & 2000
Gap handling : Appended to previous track
Used output format : User Defined Encoder
Selected bitrate : 1024 kBit/s
Quality : High
Add ID3 tag : No
Command line compressor : C:\Program Files\FLAC\flac.exe
Additional command line options : -5 -V -T "ARTIST=%a" -T "TITLE=%t" -T "ALBUM=%g" -T "DATE=%y" -T "TRACKNUMBER=%n" -T "GENRE=%m" -T "COMMENT=Ripped by andygrakoff aka yetiisyou" %s
TOC of the extracted CD
Track | Start | Length | Start sector | End sector
---------------------------------------------------------
1 | 0:00.00 | 6:26.62 | 0 | 29011
2 | 6:26.62 | 4:05.08 | 29012 | 47394
3 | 10:31.70 | 4:07.72 | 47395 | 65991
4 | 14:39.67 | 3:43.43 | 65992 | 82759
5 | 18:23.35 | 6:12.10 | 82760 | 110669
6 | 24:35.45 | 5:33.57 | 110670 | 135701
7 | 30:09.27 | 3:04.73 | 135702 | 149574
8 | 33:14.25 | 4:30.37 | 149575 | 169861
Track 1
Filename E:\!Rips\FUNK @ SOUL\Leroy Hutson - Closer To The Source (CPCD 8310)\01 – In The Mood.wav
Pre-gap length 0:00:02.00
Peak level 88.1 %
Track quality 99.9 %
Test CRC 89F81291
Copy CRC 89F81291
Track not present in AccurateRip database
Copy OK
Track 2
Filename E:\!Rips\FUNK @ SOUL\Leroy Hutson - Closer To The Source (CPCD 8310)\02 – Where Did Love Go.wav
Pre-gap length 0:00:02.66
Peak level 88.5 %
Track quality 100.0 %
Test CRC 6526C635
Copy CRC 6526C635
Track not present in AccurateRip database
Copy OK
Track 3
Filename E:\!Rips\FUNK @ SOUL\Leroy Hutson - Closer To The Source (CPCD 8310)\03 – They've Got Love.wav
Pre-gap length 0:00:02.66
Peak level 89.9 %
Track quality 100.0 %
Test CRC 7885F8D0
Copy CRC 7885F8D0
Track not present in AccurateRip database
Copy OK
Track 4
Filename E:\!Rips\FUNK @ SOUL\Leroy Hutson - Closer To The Source (CPCD 8310)\04 – Get To This.wav
Pre-gap length 0:00:02.66
Peak level 88.4 %
Track quality 100.0 %
Test CRC 85D5E15B
Copy CRC 85D5E15B
Track not present in AccurateRip database
Copy OK
Track 5
Filename E:\!Rips\FUNK @ SOUL\Leroy Hutson - Closer To The Source (CPCD 8310)\05 – Closer To The Source.wav
Pre-gap length 0:00:02.66
Peak level 88.8 %
Track quality 100.0 %
Test CRC 10C0CC2B
Copy CRC 10C0CC2B
Track not present in AccurateRip database
Copy OK
Track 6
Filename E:\!Rips\FUNK @ SOUL\Leroy Hutson - Closer To The Source (CPCD 8310)\06 – Heaven Right Here.wav
Pre-gap length 0:00:02.66
Peak level 88.7 %
Track quality 100.0 %
Test CRC 4BCA70F9
Copy CRC 4BCA70F9
Track not present in AccurateRip database
Copy OK
Track 7
Filename E:\!Rips\FUNK @ SOUL\Leroy Hutson - Closer To The Source (CPCD 8310)\07 – Everybody's A Masterpiece.wav
Pre-gap length 0:00:02.66
Peak level 88.3 %
Track quality 99.9 %
Test CRC E2591E69
Copy CRC E2591E69
Track not present in AccurateRip database
Copy OK
Track 8
Filename E:\!Rips\FUNK @ SOUL\Leroy Hutson - Closer To The Source (CPCD 8310)\08 – You're A Winner.wav
Pre-gap length 0:00:02.66
Peak level 88.8 %
Track quality 100.0 %
Test CRC A43E0C37
Copy CRC A43E0C37
Track not present in AccurateRip database
Copy OK
None of the tracks are present in the AccurateRip database
No errors occurred
End of status report
 
CUE
REM GENRE Funk
REM DISCID 7008D808
REM COMMENT "ExactAudioCopy v0.99pb5"
PERFORMER "Leroy Hutson"
TITLE "Closer To The Source"
FILE "01 – In The Mood.wav" WAVE
TRACK 01 AUDIO
TITLE "In The Mood"
PERFORMER "Leroy Hutson"
INDEX 01 00:00:00
TRACK 02 AUDIO
TITLE "Where Did Love Go"
PERFORMER "Leroy Hutson"
INDEX 00 06:24:12
FILE "02 – Where Did Love Go.wav" WAVE
INDEX 01 00:00:00
TRACK 03 AUDIO
TITLE "They've Got Love"
PERFORMER "Leroy Hutson"
INDEX 00 04:02:33
FILE "03 – They've Got Love.wav" WAVE
INDEX 01 00:00:00
TRACK 04 AUDIO
TITLE "Get To This"
PERFORMER "Leroy Hutson"
INDEX 00 04:05:22
FILE "04 – Get To This.wav" WAVE
INDEX 01 00:00:00
TRACK 05 AUDIO
TITLE "Closer To The Source"
PERFORMER "Leroy Hutson"
INDEX 00 03:40:68
FILE "05 – Closer To The Source.wav" WAVE
INDEX 01 00:00:00
TRACK 06 AUDIO
TITLE "Heaven Right Here"
PERFORMER "Leroy Hutson"
INDEX 00 06:09:35
FILE "06 – Heaven Right Here.wav" WAVE
INDEX 01 00:00:00
TRACK 07 AUDIO
TITLE "Everybody's A Masterpiece"
PERFORMER "Leroy Hutson"
INDEX 00 05:31:07
FILE "07 – Everybody's A Masterpiece.wav" WAVE
INDEX 01 00:00:00
TRACK 08 AUDIO
TITLE "You're A Winner"
PERFORMER "Leroy Hutson"
INDEX 00 03:02:23
FILE "08 – You're A Winner.wav" WAVE
INDEX 01 00:00:00
Приватный:
Нет (DHT включён)
Размер:
221.56 Мб (232,327,172 байт) » файлов: 17
Участники:
0 раздают, 0 качают (0 участников всего)
Внешние участники:
2 раздают, 1 качают (3 участников всего) [ Обновить ]
Никого нет на раздаче - пишите личное сообщение M0p94ok
No seeders - write personal message to M0p94ok
03:11
23
Нет комментариев. Ваш будет первым!