Поиск

(Funk, Soul) Curtis Mayfield and Linda Clifford - The Right Combination (CPCD 8072) - 1980, FLAC (tracks+.cue), lossless

(Funk, Soul) Curtis Mayfield and Linda Clifford - The Right Combination (CPCD 8072) - 1980, FLAC (tracks+.cue), lossless
Треклист:
Curtis Mayfield and Linda Clifford - The Right Combination
Жанр: Funk, Soul
Год выпуска диска: 1980 (remaster 1994)
Производитель диска: Charly Records Ltd.
Аудио кодек: FLAC
Тип рипа: tracks+.cue
Битрейт аудио: lossless
Продолжительность: 32 min 09 sec

1. Linda Clifford & Curtis Mayfield - Rock you to your socks (4:37)
2. Linda Clifford & Curtis Mayfield - The right combination (4:43)
3. Linda Clifford & Curtis Mayfield - I'm so proud (3:38)
4. Linda Clifford & Curtis Mayfield - Ain't no love lost (4:24)
5. Linda Clifford & Curtis Mayfield - It's lovin' time (6:20)
6. Linda Clifford & Curtis Mayfield - Loves sweet sensation (3:49)
7. Linda Clifford & Curtis Mayfield - Between you baby and me (4:38)
Собственноручный рип с оригинального диска от funky_cat!
 
Log EAC
Exact Audio Copy V0.99 prebeta 5 from 4. May 2009
EAC extraction logfile from 8. March 2010, 14:52
Linda Clifford & Curtis Mayfield / The Right Combination
Used drive : ASUS DRW-1608P2 Adapter: 0 ID: 0
Read mode : Secure
Utilize accurate stream : Yes
Defeat audio cache : Yes
Make use of C2 pointers : No
Read offset correction : 48
Overread into Lead-In and Lead-Out : No
Fill up missing offset samples with silence : Yes
Delete leading and trailing silent blocks : No
Null samples used in CRC calculations : Yes
Used interface : Native Win32 interface for Win NT & 2000
Gap handling : Appended to previous track
Used output format : User Defined Encoder
Selected bitrate : 320 kBit/s
Quality : High
Add ID3 tag : No
Command line compressor : C:\Program Files\FLAC\flac.exe
Additional command line options : -5 -V -T "ARTIST=%a" -T "TITLE=%t" -T "ALBUM=%g" -T "DATE=%y" -T "TRACKNUMBER=%n" -T "GENRE=%m" -T "COMMENT=Ripped By andygrakoff aka yetiisyou" %s
TOC of the extracted CD
Track | Start | Length | Start sector | End sector
---------------------------------------------------------
1 | 0:00.00 | 4:37.07 | 0 | 20781
2 | 4:37.07 | 4:43.63 | 20782 | 42069
3 | 9:20.70 | 3:38.12 | 42070 | 58431
4 | 12:59.07 | 4:24.25 | 58432 | 78256
5 | 17:23.32 | 6:20.68 | 78257 | 106824
6 | 23:44.25 | 3:49.47 | 106825 | 124046
7 | 27:33.72 | 4:38.18 | 124047 | 144914
Track 1
Filename E:\!Rips\FUNK @ SOUL\Linda Clifford & Curtis Mayfield - The Right Combination (CPCD 8072)\01 – Rock you to your socks.wav
Pre-gap length 0:00:02.00
Peak level 89.2 %
Track quality 100.0 %
Test CRC D758A594
Copy CRC D758A594
Accurately ripped (confidence 3) [9BABF9CB]
Copy OK
Track 2
Filename E:\!Rips\FUNK @ SOUL\Linda Clifford & Curtis Mayfield - The Right Combination (CPCD 8072)\02 – The right combination.wav
Pre-gap length 0:00:02.00
Peak level 90.3 %
Track quality 100.0 %
Test CRC A14BE929
Copy CRC A14BE929
Accurately ripped (confidence 3) [F545537F]
Copy OK
Track 3
Filename E:\!Rips\FUNK @ SOUL\Linda Clifford & Curtis Mayfield - The Right Combination (CPCD 8072)\03 – I'm so proud.wav
Pre-gap length 0:00:02.00
Peak level 88.3 %
Track quality 99.9 %
Test CRC AF23DFE1
Copy CRC AF23DFE1
Accurately ripped (confidence 3) [E138000B]
Copy OK
Track 4
Filename E:\!Rips\FUNK @ SOUL\Linda Clifford & Curtis Mayfield - The Right Combination (CPCD 8072)\04 – Ain't no love lost.wav
Pre-gap length 0:00:02.00
Peak level 89.7 %
Track quality 99.9 %
Test CRC 3E058DC2
Copy CRC 3E058DC2
Accurately ripped (confidence 3) [CCB08814]
Copy OK
Track 5
Filename E:\!Rips\FUNK @ SOUL\Linda Clifford & Curtis Mayfield - The Right Combination (CPCD 8072)\05 – It's lovin' time.wav
Pre-gap length 0:00:02.66
Peak level 91.3 %
Track quality 100.0 %
Test CRC 68557B8B
Copy CRC 68557B8B
Accurately ripped (confidence 3) [DA24222E]
Copy OK
Track 6
Filename E:\!Rips\FUNK @ SOUL\Linda Clifford & Curtis Mayfield - The Right Combination (CPCD 8072)\06 – Loves sweet sensation.wav
Pre-gap length 0:00:02.77
Peak level 90.4 %
Track quality 100.0 %
Test CRC FE35B744
Copy CRC FE35B744
Accurately ripped (confidence 3) [C3E3A663]
Copy OK
Track 7
Filename E:\!Rips\FUNK @ SOUL\Linda Clifford & Curtis Mayfield - The Right Combination (CPCD 8072)\07 – Between you baby and me.wav
Pre-gap length 0:00:02.53
Peak level 96.2 %
Track quality 100.0 %
Test CRC 2DEB4A70
Copy CRC 2DEB4A70
Accurately ripped (confidence 3) [7613E183]
Copy OK
All tracks accurately ripped
No errors occurred
End of status report
 
CUE
REM GENRE Soul
REM DATE 1980
REM DISCID 59078C07
REM COMMENT "ExactAudioCopy v0.99pb5"
PERFORMER "Linda Clifford & Curtis Mayfield"
TITLE "The Right Combination"
FILE "01 – Rock you to your socks.wav" WAVE
TRACK 01 AUDIO
TITLE "Rock you to your socks"
PERFORMER "Linda Clifford & Curtis Mayfield"
INDEX 01 00:00:00
TRACK 02 AUDIO
TITLE "The right combination"
PERFORMER "Linda Clifford & Curtis Mayfield"
INDEX 00 04:35:07
FILE "02 – The right combination.wav" WAVE
INDEX 01 00:00:00
TRACK 03 AUDIO
TITLE "I'm so proud"
PERFORMER "Linda Clifford & Curtis Mayfield"
INDEX 00 04:41:63
FILE "03 – I'm so proud.wav" WAVE
INDEX 01 00:00:00
TRACK 04 AUDIO
TITLE "Ain't no love lost"
PERFORMER "Linda Clifford & Curtis Mayfield"
INDEX 00 03:36:12
FILE "04 – Ain't no love lost.wav" WAVE
INDEX 01 00:00:00
TRACK 05 AUDIO
TITLE "It's lovin' time "
PERFORMER "Linda Clifford & Curtis Mayfield"
INDEX 00 04:21:50
FILE "05 – It's lovin' time.wav" WAVE
INDEX 01 00:00:00
TRACK 06 AUDIO
TITLE "Loves sweet sensation"
PERFORMER "Linda Clifford & Curtis Mayfield"
INDEX 00 06:18:10
FILE "06 – Loves sweet sensation.wav" WAVE
INDEX 01 00:00:00
TRACK 07 AUDIO
TITLE "Between you baby and me"
PERFORMER "Linda Clifford & Curtis Mayfield"
INDEX 00 03:47:07
FILE "07 – Between you baby and me.wav" WAVE
INDEX 01 00:00:00
Приватный:
Нет (DHT включён)
Размер:
206.42 Мб (216,446,481 байт) » файлов: 16
Участники:
0 раздают, 0 качают (0 участников всего)
Внешние участники:
5 раздают, 1 качают (6 участников всего) [ Обновить ]
Никого нет на раздаче - пишите личное сообщение M0p94ok
No seeders - write personal message to M0p94ok
03:12
20
Нет комментариев. Ваш будет первым!