Поиск

(Funk, Soul, Jazz) Marvin Gaye - 2 albums (Live!, You're All I Need (Marvin Gaye & Tammi Terrell)) - 1968-1974, FLAC (tracks+.cue), lossless

(Funk, Soul, Jazz) Marvin Gaye - 2 albums (Live!, You're All I Need (Marvin Gaye & Tammi Terrell)) - 1968-1974, FLAC (tracks+.cue), lossless
Треклист:
Marvin Gaye - Live!, You're All I Need
Жанр: Funk, Soul, Jazz
Год выпуска диска:1968-1974
Аудио кодек: FLAC
Тип рипа: tracks+.cue
Битрейт аудио: lossless
Продолжительность: 01:25:47
Собственноручные рипы с оригинальных дисков от funky_cat!
 
Live! 1974 (8431588067321) Motown 1998 remaster
Продолжительность: 52 min 17 sec
1. Marvin Gaye - Introduction (0:34)
2. Marvin Gaye - Overture (2:24)
3. Marvin Gaye - Trouble Man (6:36)
4. Marvin Gaye - Flyin' High (In The Friendly Sky), Mercy Mercy Me (The Ecology) (4:28)
5. Marvin Gaye - Inner City Blues (Make Me Wanna Holler) (3:55)
6. Marvin Gaye - Distance Lover (6:14)
7. Marvin Gaye - Jan (2:56)
8. Marvin Gaye - Keep Gettin' It On (3:07)
9. Marvin Gaye - Fossil Medley (11:36)
10. Marvin Gaye - Thanks To The Orchestra (0:55)
11. Marvin Gaye - Let's Get It On (4:43)
12. Marvin Gaye - What's Going On (4:49)
 
Log EAC
Exact Audio Copy V0.99 prebeta 5 from 4. May 2009
EAC extraction logfile from 16. March 2010, 23:11
Marvin Gaye / Live!
Used drive : Optiarc DVD RW AD-7170A Adapter: 0 ID: 1
Read mode : Secure
Utilize accurate stream : Yes
Defeat audio cache : Yes
Make use of C2 pointers : No
Read offset correction : 48
Overread into Lead-In and Lead-Out : No
Fill up missing offset samples with silence : Yes
Delete leading and trailing silent blocks : No
Null samples used in CRC calculations : Yes
Used interface : Native Win32 interface for Win NT & 2000
Gap handling : Appended to previous track
Used output format : User Defined Encoder
Selected bitrate : 1024 kBit/s
Quality : High
Add ID3 tag : No
Command line compressor : C:\Program Files\FLAC\flac.exe
Additional command line options : -5 -V -T "ARTIST=%a" -T "TITLE=%t" -T "ALBUM=%g" -T "DATE=%y" -T "TRACKNUMBER=%n" -T "GENRE=%m" -T "COMMENT=Ripped by andygrakoff aka yetiisyou" %s
TOC of the extracted CD
Track | Start | Length | Start sector | End sector
---------------------------------------------------------
1 | 0:00.00 | 0:34.32 | 0 | 2581
2 | 0:34.32 | 2:24.13 | 2582 | 13394
3 | 2:58.45 | 6:36.22 | 13395 | 43116
4 | 9:34.67 | 4:28.05 | 43117 | 63221
5 | 14:02.72 | 3:55.30 | 63222 | 80876
6 | 17:58.27 | 6:14.73 | 80877 | 108999
7 | 24:13.25 | 2:56.27 | 109000 | 122226
8 | 27:09.52 | 3:07.33 | 122227 | 136284
9 | 30:17.10 | 11:36.05 | 136285 | 188489
10 | 41:53.15 | 0:55.40 | 188490 | 192654
11 | 42:48.55 | 4:43.47 | 192655 | 213926
12 | 47:32.27 | 4:49.45 | 213927 | 235646
Track 1
Filename E:\FUNK @ SOUL\Marvin Gaye - Live! 1974 (8431588067321) Motown 1998\01 – Introduction.wav
Pre-gap length 0:00:02.00
Peak level 100.0 %
Track quality 100.0 %
Test CRC 04810D16
Copy CRC 04810D16
Cannot be verified as accurate (confidence 3) [61B82D05], AccurateRip returned [9196BB2E]
Copy OK
Track 2
Filename E:\FUNK @ SOUL\Marvin Gaye - Live! 1974 (8431588067321) Motown 1998\02 – Overture.wav
Peak level 100.0 %
Track quality 100.0 %
Test CRC 73119C89
Copy CRC 73119C89
Cannot be verified as accurate (confidence 3) [BBB43890], AccurateRip returned [D2BDCC48]
Copy OK
Track 3
Filename E:\FUNK @ SOUL\Marvin Gaye - Live! 1974 (8431588067321) Motown 1998\03 – Trouble Man.wav
Peak level 100.0 %
Track quality 100.0 %
Test CRC C8B23FB7
Copy CRC C8B23FB7
Cannot be verified as accurate (confidence 3) [BAE9A1A3], AccurateRip returned [6480BFED]
Copy OK
Track 4
Filename E:\FUNK @ SOUL\Marvin Gaye - Live! 1974 (8431588067321) Motown 1998\04 – Flyin' High (In The Friendly Sky), Mercy Mercy Me (The Ecology).wav
Peak level 100.0 %
Track quality 100.0 %
Test CRC 9410E9AA
Copy CRC 9410E9AA
Cannot be verified as accurate (confidence 3) [E3B01C38], AccurateRip returned [DBC18CBE]
Copy OK
Track 5
Filename E:\FUNK @ SOUL\Marvin Gaye - Live! 1974 (8431588067321) Motown 1998\05 – Inner City Blues (Make Me Wanna Holler).wav
Peak level 100.0 %
Track quality 100.0 %
Test CRC C529E736
Copy CRC C529E736
Cannot be verified as accurate (confidence 3) [E4F768B9], AccurateRip returned [D87FDB87]
Copy OK
Track 6
Filename E:\FUNK @ SOUL\Marvin Gaye - Live! 1974 (8431588067321) Motown 1998\06 – Distance Lover.wav
Peak level 100.0 %
Track quality 99.9 %
Test CRC 89FA1018
Copy CRC 89FA1018
Cannot be verified as accurate (confidence 3) [A0AC4D51], AccurateRip returned [2F1E1246]
Copy OK
Track 7
Filename E:\FUNK @ SOUL\Marvin Gaye - Live! 1974 (8431588067321) Motown 1998\07 – Jan.wav
Peak level 100.0 %
Track quality 100.0 %
Test CRC 7649C4DE
Copy CRC 7649C4DE
Cannot be verified as accurate (confidence 3) [F7D4217E], AccurateRip returned [41D133AC]
Copy OK
Track 8
Filename E:\FUNK @ SOUL\Marvin Gaye - Live! 1974 (8431588067321) Motown 1998\08 – Keep Gettin' It On.wav
Peak level 98.6 %
Track quality 100.0 %
Test CRC C7F4FC7C
Copy CRC C7F4FC7C
Cannot be verified as accurate (confidence 3) [B1F3D754], AccurateRip returned [E6A4FCEB]
Copy OK
Track 9
Filename E:\FUNK @ SOUL\Marvin Gaye - Live! 1974 (8431588067321) Motown 1998\09 – Fossil Medley.wav
Peak level 98.2 %
Track quality 100.0 %
Test CRC 41668AE5
Copy CRC 41668AE5
Cannot be verified as accurate (confidence 3) [8007EA2D], AccurateRip returned [087CC85D]
Copy OK
Track 10
Filename E:\FUNK @ SOUL\Marvin Gaye - Live! 1974 (8431588067321) Motown 1998\10 – Thanks To The Orchestra.wav
Pre-gap length 0:00:00.06
Peak level 91.6 %
Track quality 100.0 %
Test CRC 203A77F9
Copy CRC 203A77F9
Cannot be verified as accurate (confidence 3) [B6E0DA2C], AccurateRip returned [1D88319E]
Copy OK
Track 11
Filename E:\FUNK @ SOUL\Marvin Gaye - Live! 1974 (8431588067321) Motown 1998\11 – Let's Get It On.wav
Peak level 98.0 %
Track quality 100.0 %
Test CRC E9144898
Copy CRC E9144898
Cannot be verified as accurate (confidence 3) [27F7050E], AccurateRip returned [6667DF66]
Copy OK
Track 12
Filename E:\FUNK @ SOUL\Marvin Gaye - Live! 1974 (8431588067321) Motown 1998\12 – What's Going On.wav
Peak level 98.2 %
Track quality 100.0 %
Test CRC 406244B0
Copy CRC 406244B0
Cannot be verified as accurate (confidence 3) [2B50DF1D], AccurateRip returned [EB488901]
Copy OK
No tracks could be verified as accurate
You may have a different pressing from the one(s) in the database
No errors occurred
End of status report
 
CUE
REM GENRE Soul
REM DATE 1998
REM DISCID 9A0C450C
REM COMMENT "ExactAudioCopy v0.99pb5"
PERFORMER "Marvin Gaye"
TITLE "Live!"
FILE "01 – Introduction.wav" WAVE
TRACK 01 AUDIO
TITLE "Introduction"
PERFORMER "Marvin Gaye"
INDEX 01 00:00:00
FILE "02 – Overture.wav" WAVE
TRACK 02 AUDIO
TITLE "Overture"
PERFORMER "Marvin Gaye"
INDEX 01 00:00:00
FILE "03 – Trouble Man.wav" WAVE
TRACK 03 AUDIO
TITLE "Trouble Man"
PERFORMER "Marvin Gaye"
INDEX 01 00:00:00
FILE "04 – Flyin' High (In The Friendly Sky), Mercy Mercy Me (The Ecology).wav" WAVE
TRACK 04 AUDIO
TITLE "Flyin' High (In The Friendly Sky), Mercy Mercy Me (The Ecology)"
PERFORMER "Marvin Gaye"
INDEX 01 00:00:00
FILE "05 – Inner City Blues (Make Me Wanna Holler).wav" WAVE
TRACK 05 AUDIO
TITLE "Inner City Blues (Make Me Wanna Holler)"
PERFORMER "Marvin Gaye"
INDEX 01 00:00:00
FILE "06 – Distance Lover.wav" WAVE
TRACK 06 AUDIO
TITLE "Distance Lover"
PERFORMER "Marvin Gaye"
INDEX 01 00:00:00
FILE "07 – Jan.wav" WAVE
TRACK 07 AUDIO
TITLE "Jan"
PERFORMER "Marvin Gaye"
INDEX 01 00:00:00
FILE "08 – Keep Gettin' It On.wav" WAVE
TRACK 08 AUDIO
TITLE "Keep Gettin' It On"
PERFORMER "Marvin Gaye"
INDEX 01 00:00:00
FILE "09 – Fossil Medley.wav" WAVE
TRACK 09 AUDIO
TITLE "Fossil Medley"
PERFORMER "Marvin Gaye"
INDEX 01 00:00:00
TRACK 10 AUDIO
TITLE "Thanks To The Orchestra"
PERFORMER "Marvin Gaye"
INDEX 00 11:36:00
FILE "10 – Thanks To The Orchestra.wav" WAVE
INDEX 01 00:00:00
FILE "11 – Let's Get It On.wav" WAVE
TRACK 11 AUDIO
TITLE "Let's Get It On"
PERFORMER "Marvin Gaye"
INDEX 01 00:00:00
FILE "12 – What's Going On.wav" WAVE
TRACK 12 AUDIO
TITLE "What's Going On"
PERFORMER "Marvin Gaye"
INDEX 01 00:00:00
 
Marvin Gaye & Tammi Terrell - You're All I Need (WD72208) (remaster 1986)
Продолжительность: 33 min 30 sec
1. Gaye, Marvin & Terrell, Tammi - Ain't Nothing But The Real Thing (2:19)
2. Gaye, Marvin & Terrell, Tammi - Keep On Lovin' Me Honey (2:35)
3. Gaye, Marvin & Terrell, Tammi - You're All I Need To Get By (2:55)
4. Gaye, Marvin & Terrell, Tammi - Baby Don't Cha Worry (2:59)
5. Gaye, Marvin & Terrell, Tammi - You Ain't Livin' Till You're lovin' (2:51)
6. Gaye, Marvin & Terrell, Tammi - Give In, You Just Can't Win (2:35)
7. Gaye, Marvin & Terrell, Tammi - When Love Comes Knocking At My Heart (2:33)
8. Gaye, Marvin & Terrell, Tammi - Come On And See Me (2:29)
9. Gaye, Marvin & Terrell, Tammi - I Can't Help But Love You (2:51)
10. Gaye, Marvin & Terrell, Tammi - That's How It Is (Since You've Been Gone) (3:04)
11. Gaye, Marvin & Terrell, Tammi - I'll Never Stop Loving You Baby (3:24)
12. Gaye, Marvin & Terrell, Tammi - Memory Chest (2:55)
 
Log EAC
Exact Audio Copy V0.99 prebeta 5 from 4. May 2009
EAC extraction logfile from 8. March 2010, 1:27
Gaye, Marvin & Terrell, Tammi / You're All I Need
Used drive : ASUS CB-5216A Adapter: 0 ID: 1
Read mode : Secure
Utilize accurate stream : Yes
Defeat audio cache : Yes
Make use of C2 pointers : No
Read offset correction : 6
Overread into Lead-In and Lead-Out : No
Fill up missing offset samples with silence : Yes
Delete leading and trailing silent blocks : No
Null samples used in CRC calculations : Yes
Used interface : Native Win32 interface for Win NT & 2000
Gap handling : Appended to previous track
Used output format : User Defined Encoder
Selected bitrate : 320 kBit/s
Quality : High
Add ID3 tag : No
Command line compressor : C:\Program Files\FLAC\flac.exe
Additional command line options : -5 -V -T "ARTIST=%a" -T "TITLE=%t" -T "ALBUM=%g" -T "DATE=%y" -T "TRACKNUMBER=%n" -T "GENRE=%m" -T "COMMENT=Ripped By andygrakoff aka yetiisyou" %s
TOC of the extracted CD
Track | Start | Length | Start sector | End sector
---------------------------------------------------------
1 | 0:00.32 | 2:19.48 | 32 | 10504
2 | 2:20.05 | 2:35.47 | 10505 | 22176
3 | 4:55.52 | 2:55.08 | 22177 | 35309
4 | 7:50.60 | 2:59.32 | 35310 | 48766
5 | 10:50.17 | 2:51.13 | 48767 | 61604
6 | 13:41.30 | 2:35.12 | 61605 | 73241
7 | 16:16.42 | 2:33.53 | 73242 | 84769
8 | 18:50.20 | 2:29.50 | 84770 | 95994
9 | 21:19.70 | 2:51.27 | 95995 | 108846
10 | 24:11.22 | 3:04.35 | 108847 | 122681
11 | 27:15.57 | 3:24.53 | 122682 | 138034
12 | 30:40.35 | 2:55.42 | 138035 | 151201
Track 1
Filename E:\!Rips\FUNK @ SOUL\Marvin Gaye & Tammi Terrell - You're All I Need (WD72208)\01 – Ain't Nothing But The Real Thing.wav
Pre-gap length 0:00:02.42
Peak level 66.9 %
Track quality 100.0 %
Test CRC DEDEF323
Copy CRC DEDEF323
Accurately ripped (confidence 1) [7735C9F0]
Copy OK
Track 2
Filename E:\!Rips\FUNK @ SOUL\Marvin Gaye & Tammi Terrell - You're All I Need (WD72208)\02 – Keep On Lovin' Me Honey.wav
Pre-gap length 0:00:04.97
Peak level 59.7 %
Track quality 100.0 %
Test CRC 05C4C6C2
Copy CRC 05C4C6C2
Accurately ripped (confidence 1) [39111816]
Copy OK
Track 3
Filename E:\!Rips\FUNK @ SOUL\Marvin Gaye & Tammi Terrell - You're All I Need (WD72208)\03 – You're All I Need To Get By.wav
Pre-gap length 0:00:05.20
Peak level 58.3 %
Track quality 100.0 %
Test CRC 8820F926
Copy CRC 8820F926
Accurately ripped (confidence 1) [164184F2]
Copy OK
Track 4
Filename E:\!Rips\FUNK @ SOUL\Marvin Gaye & Tammi Terrell - You're All I Need (WD72208)\04 – Baby Don't Cha Worry.wav
Pre-gap length 0:00:05.24
Peak level 53.9 %
Track quality 100.0 %
Test CRC 6F7F396D
Copy CRC 6F7F396D
Accurately ripped (confidence 1) [CC9981A1]
Copy OK
Track 5
Filename E:\!Rips\FUNK @ SOUL\Marvin Gaye & Tammi Terrell - You're All I Need (WD72208)\05 – You Ain't Livin' Till You're lovin'.wav
Pre-gap length 0:00:04.02
Peak level 57.2 %
Track quality 100.0 %
Test CRC BE2E3E33
Copy CRC BE2E3E33
Accurately ripped (confidence 1) [CAB7E3C1]
Copy OK
Track 6
Filename E:\!Rips\FUNK @ SOUL\Marvin Gaye & Tammi Terrell - You're All I Need (WD72208)\06 – Give In, You Just Can't Win.wav
Pre-gap length 0:00:03.53
Peak level 71.5 %
Track quality 100.0 %
Test CRC FAB4020B
Copy CRC FAB4020B
Accurately ripped (confidence 1) [3791D2FB]
Copy OK
Track 7
Filename E:\!Rips\FUNK @ SOUL\Marvin Gaye & Tammi Terrell - You're All I Need (WD72208)\07 – When Love Comes Knocking At My Heart.wav
Pre-gap length 0:00:00.53
Peak level 62.6 %
Track quality 100.0 %
Test CRC 2063CDC5
Copy CRC 2063CDC5
Accurately ripped (confidence 1) [7D79EA61]
Copy OK
Track 8
Filename E:\!Rips\FUNK @ SOUL\Marvin Gaye & Tammi Terrell - You're All I Need (WD72208)\08 – Come On And See Me.wav
Pre-gap length 0:00:04.20
Peak level 68.6 %
Track quality 100.0 %
Test CRC E9F2F15C
Copy CRC E9F2F15C
Accurately ripped (confidence 1) [52E1F7F2]
Copy OK
Track 9
Filename E:\!Rips\FUNK @ SOUL\Marvin Gaye & Tammi Terrell - You're All I Need (WD72208)\09 – I Can't Help But Love You.wav
Pre-gap length 0:00:04.04
Peak level 66.7 %
Track quality 99.9 %
Test CRC 62ECA130
Copy CRC 62ECA130
Accurately ripped (confidence 1) [2149E6E3]
Copy OK
Track 10
Filename E:\!Rips\FUNK @ SOUL\Marvin Gaye & Tammi Terrell - You're All I Need (WD72208)\10 – That's How It Is (Since You've Been Gone).wav
Pre-gap length 0:00:03.86
Peak level 61.1 %
Track quality 100.0 %
Test CRC 3E225B5C
Copy CRC 3E225B5C
Accurately ripped (confidence 1) [8FE46DF0]
Copy OK
Track 11
Filename E:\!Rips\FUNK @ SOUL\Marvin Gaye & Tammi Terrell - You're All I Need (WD72208)\11 – I'll Never Stop Loving You Baby.wav
Pre-gap length 0:00:04.86
Peak level 70.0 %
Track quality 100.0 %
Test CRC C01786E5
Copy CRC C01786E5
Accurately ripped (confidence 1) [2B059419]
Copy OK
Track 12
Filename E:\!Rips\FUNK @ SOUL\Marvin Gaye & Tammi Terrell - You're All I Need (WD72208)\12 – Memory Chest.wav
Pre-gap length 0:00:04.60
Peak level 66.2 %
Track quality 100.0 %
Test CRC 3E729F86
Copy CRC 3E729F86
Accurately ripped (confidence 1) [98990BFF]
Copy OK
All tracks accurately ripped
No errors occurred
End of status report
 
CUE
REM DATE 1968
REM DISCID 9A07E00C
REM COMMENT "ExactAudioCopy v0.99pb5"
PERFORMER "Gaye, Marvin & Terrell, Tammi"
TITLE "You're All I Need"
FILE "01 – Ain't Nothing But The Real Thing.wav" WAVE
TRACK 01 AUDIO
TITLE "Ain't Nothing But The Real Thing"
PERFORMER "Gaye, Marvin & Terrell, Tammi"
PREGAP 00:00:32
INDEX 01 00:00:00
TRACK 02 AUDIO
TITLE "Keep On Lovin' Me Honey"
PERFORMER "Gaye, Marvin & Terrell, Tammi"
INDEX 00 02:14:50
FILE "02 – Keep On Lovin' Me Honey.wav" WAVE
INDEX 01 00:00:00
TRACK 03 AUDIO
TITLE "You're All I Need To Get By"
PERFORMER "Gaye, Marvin & Terrell, Tammi"
INDEX 00 02:30:32
FILE "03 – You're All I Need To Get By.wav" WAVE
INDEX 01 00:00:00
TRACK 04 AUDIO
TITLE "Baby Don't Cha Worry"
PERFORMER "Gaye, Marvin & Terrell, Tammi"
INDEX 00 02:49:65
FILE "04 – Baby Don't Cha Worry.wav" WAVE
INDEX 01 00:00:00
TRACK 05 AUDIO
TITLE "You Ain't Livin' Till You're lovin'"
PERFORMER "Gaye, Marvin & Terrell, Tammi"
INDEX 00 02:55:30
FILE "05 – You Ain't Livin' Till You're lovin'.wav" WAVE
INDEX 01 00:00:00
TRACK 06 AUDIO
TITLE "Give In, You Just Can't Win"
PERFORMER "Gaye, Marvin & Terrell, Tammi"
INDEX 00 02:47:48
FILE "06 – Give In, You Just Can't Win.wav" WAVE
INDEX 01 00:00:00
TRACK 07 AUDIO
TITLE "When Love Comes Knocking At My Heart"
PERFORMER "Gaye, Marvin & Terrell, Tammi"
INDEX 00 02:34:47
FILE "07 – When Love Comes Knocking At My Heart.wav" WAVE
INDEX 01 00:00:00
TRACK 08 AUDIO
TITLE "Come On And See Me"
PERFORMER "Gaye, Marvin & Terrell, Tammi"
INDEX 00 02:29:38
FILE "08 – Come On And See Me.wav" WAVE
INDEX 01 00:00:00
TRACK 09 AUDIO
TITLE "I Can't Help But Love You"
PERFORMER "Gaye, Marvin & Terrell, Tammi"
INDEX 00 02:25:47
FILE "09 – I Can't Help But Love You.wav" WAVE
INDEX 01 00:00:00
TRACK 10 AUDIO
TITLE "That's How It Is (Since You've Been Gone)"
PERFORMER "Gaye, Marvin & Terrell, Tammi"
INDEX 00 02:47:37
FILE "10 – That's How It Is (Since You've Been Gone).wav" WAVE
INDEX 01 00:00:00
TRACK 11 AUDIO
TITLE "I'll Never Stop Loving You Baby"
PERFORMER "Gaye, Marvin & Terrell, Tammi"
INDEX 00 02:59:45
FILE "11 – I'll Never Stop Loving You Baby.wav" WAVE
INDEX 01 00:00:00
TRACK 12 AUDIO
TITLE "Memory Chest"
PERFORMER "Gaye, Marvin & Terrell, Tammi"
INDEX 00 03:20:08
FILE "12 – Memory Chest.wav" WAVE
INDEX 01 00:00:00
Приватный:
Нет (DHT включён)
Размер:
602.47 Мб (631,740,169 байт) » файлов: 45
Участники:
0 раздают, 0 качают (0 участников всего)
Внешние участники:
5 раздают, 2 качают (7 участников всего) [ Обновить ]
03:12
21
Нет комментариев. Ваш будет первым!