Поиск

(Funk, Soul) Mandrill - Energize (AGEK-2367) - 1982, FLAC (tracks+.cue), lossless

(Funk, Soul) Mandrill - Energize (AGEK-2367) - 1982, FLAC (tracks+.cue), lossless
Треклист:
Mandrill - Energize
Жанр: Funk, Soul
Год выпуска диска: 1982
Производитель диска: UNIDISC
Аудио кодек: FLAC
Тип рипа: tracks+.cue
Битрейт аудио: lossless
Продолжительность: 00:58:40

1. Mandrill - Put Your Money Where The Funk Is (12' Mix) (5:20)
2. Mandrill - Bust Loose (6:20)
3. Mandrill - Wired For Love (5:43)
4. Mandrill - Starry-Eyed (4:12)
5. Mandrill - Soar Like An Eagle (5:45)
6. Mandrill - Get It While It's Hot (5:09)
7. Mandrill - Believe In You (5:52)
8. Mandrill - Put Your Money Where The Funk Is (Album Mix) (5:30)
9. Mandrill - Wired For Love (12' Mix) (6:04)
10. Mandrill - Put Your Money Where The Funk Is (Instrumental) (5:03)
11. Mandrill - Put Your Money Where The Funk Is (Radio Mix) (3:42)
Собственноручный рип с оригинального диска от funky_cat!
 
Log EAC
Exact Audio Copy V0.99 prebeta 5 from 4. May 2009
EAC extraction logfile from 12. March 2010, 23:19
Mandrill / Energize
Used drive : Optiarc DVD RW AD-7170A Adapter: 0 ID: 1
Read mode : Secure
Utilize accurate stream : Yes
Defeat audio cache : Yes
Make use of C2 pointers : No
Read offset correction : 48
Overread into Lead-In and Lead-Out : No
Fill up missing offset samples with silence : Yes
Delete leading and trailing silent blocks : No
Null samples used in CRC calculations : Yes
Used interface : Native Win32 interface for Win NT & 2000
Gap handling : Appended to previous track
Used output format : User Defined Encoder
Selected bitrate : 1024 kBit/s
Quality : High
Add ID3 tag : No
Command line compressor : C:\Program Files\FLAC\flac.exe
Additional command line options : -5 -V -T "ARTIST=%a" -T "TITLE=%t" -T "ALBUM=%g" -T "DATE=%y" -T "TRACKNUMBER=%n" -T "GENRE=%m" -T "COMMENT=Ripped by andygrakoff aka yetiisyou" %s
TOC of the extracted CD
Track | Start | Length | Start sector | End sector
---------------------------------------------------------
1 | 0:00.00 | 5:20.22 | 0 | 24021
2 | 5:20.22 | 6:20.03 | 24022 | 52524
3 | 11:40.25 | 5:43.37 | 52525 | 78286
4 | 17:23.62 | 4:12.13 | 78287 | 97199
5 | 21:36.00 | 5:45.12 | 97200 | 123086
6 | 27:21.12 | 5:09.53 | 123087 | 146314
7 | 32:30.65 | 5:52.55 | 146315 | 172769
8 | 38:23.45 | 5:30.22 | 172770 | 197541
9 | 43:53.67 | 6:04.18 | 197542 | 224859
10 | 49:58.10 | 5:03.72 | 224860 | 247656
11 | 55:02.07 | 3:42.73 | 247657 | 264379
Track 1
Filename E:\!Rips\FUNK @ SOUL\Mandrill - Energize (AGEK-2367)\01 – Put Your Money Where The Funk Is (12' Mix).wav
Pre-gap length 0:00:02.00
Peak level 92.6 %
Track quality 100.0 %
Test CRC 8581E00F
Copy CRC 8581E00F
Accurately ripped (confidence 1) [BCF84C1F]
Copy OK
Track 2
Filename E:\!Rips\FUNK @ SOUL\Mandrill - Energize (AGEK-2367)\02 – Bust Loose.wav
Pre-gap length 0:00:01.66
Peak level 92.6 %
Track quality 100.0 %
Test CRC 8E639155
Copy CRC 8E639155
Accurately ripped (confidence 1) [F72BD818]
Copy OK
Track 3
Filename E:\!Rips\FUNK @ SOUL\Mandrill - Energize (AGEK-2367)\03 – Wired For Love.wav
Pre-gap length 0:00:01.73
Peak level 92.6 %
Track quality 100.0 %
Test CRC 49A304E5
Copy CRC 49A304E5
Accurately ripped (confidence 1) [AA5BF4DF]
Copy OK
Track 4
Filename E:\!Rips\FUNK @ SOUL\Mandrill - Energize (AGEK-2367)\04 – Starry-Eyed.wav
Pre-gap length 0:00:01.73
Peak level 92.6 %
Track quality 100.0 %
Test CRC 42C9E6AE
Copy CRC 42C9E6AE
Accurately ripped (confidence 1) [831356C9]
Copy OK
Track 5
Filename E:\!Rips\FUNK @ SOUL\Mandrill - Energize (AGEK-2367)\05 – Soar Like An Eagle.wav
Pre-gap length 0:00:01.50
Peak level 92.6 %
Track quality 100.0 %
Test CRC 89D05163
Copy CRC 89D05163
Accurately ripped (confidence 1) [A3CF2F92]
Copy OK
Track 6
Filename E:\!Rips\FUNK @ SOUL\Mandrill - Energize (AGEK-2367)\06 – Get It While It's Hot.wav
Pre-gap length 0:00:01.46
Peak level 92.7 %
Track quality 100.0 %
Test CRC B9ACA98B
Copy CRC B9ACA98B
Cannot be verified as accurate (confidence 1) [39A2C857], AccurateRip returned [A862FB4D]
Copy OK
Track 7
Filename E:\!Rips\FUNK @ SOUL\Mandrill - Energize (AGEK-2367)\07 – Believe In You.wav
Pre-gap length 0:00:01.57
Peak level 92.6 %
Track quality 100.0 %
Test CRC 29D8B629
Copy CRC 29D8B629
Accurately ripped (confidence 1) [79816F28]
Copy OK
Track 8
Filename E:\!Rips\FUNK @ SOUL\Mandrill - Energize (AGEK-2367)\08 – Put Your Money Where The Funk Is (Album Mix).wav
Pre-gap length 0:00:01.53
Peak level 88.5 %
Track quality 100.0 %
Test CRC A33EE17A
Copy CRC A33EE17A
Accurately ripped (confidence 1) [02483672]
Copy OK
Track 9
Filename E:\!Rips\FUNK @ SOUL\Mandrill - Energize (AGEK-2367)\09 – Wired For Love (12' Mix).wav
Pre-gap length 0:00:01.40
Peak level 84.1 %
Track quality 99.9 %
Test CRC 3ADB9621
Copy CRC 3ADB9621
Accurately ripped (confidence 1) [E7B52DE0]
Copy OK
Track 10
Filename E:\!Rips\FUNK @ SOUL\Mandrill - Energize (AGEK-2367)\10 – Put Your Money Where The Funk Is (Instrumental).wav
Pre-gap length 0:00:01.90
Peak level 92.3 %
Track quality 100.0 %
Test CRC 1F6DD3EB
Copy CRC 1F6DD3EB
Accurately ripped (confidence 1) [1E114B7E]
Copy OK
Track 11
Filename E:\!Rips\FUNK @ SOUL\Mandrill - Energize (AGEK-2367)\11 – Put Your Money Where The Funk Is (Radio Mix).wav
Pre-gap length 0:00:02.16
Peak level 92.6 %
Track quality 99.9 %
Test CRC F6E1676B
Copy CRC F6E1676B
Accurately ripped (confidence 1) [1B5128DD]
Copy OK
10 track(s) accurately ripped
1 track(s) could not be verified as accurate
Some tracks could not be verified as accurate
No errors occurred
End of status report
 
CUE
REM GENRE Funk
REM DATE 1982
REM DISCID 760DC50B
REM COMMENT "ExactAudioCopy v0.99pb5"
PERFORMER "Mandrill"
TITLE "Energize"
FILE "01 – Put Your Money Where The Funk Is (12' Mix).wav" WAVE
TRACK 01 AUDIO
TITLE "Put Your Money Where The Funk Is (12' Mix)"
PERFORMER "Mandrill"
INDEX 01 00:00:00
TRACK 02 AUDIO
TITLE "Bust Loose "
PERFORMER "Mandrill"
INDEX 00 05:18:47
FILE "02 – Bust Loose.wav" WAVE
INDEX 01 00:00:00
TRACK 03 AUDIO
TITLE "Wired For Love"
PERFORMER "Mandrill"
INDEX 00 06:18:23
FILE "03 – Wired For Love.wav" WAVE
INDEX 01 00:00:00
TRACK 04 AUDIO
TITLE "Starry-Eyed "
PERFORMER "Mandrill"
INDEX 00 05:41:57
FILE "04 – Starry-Eyed.wav" WAVE
INDEX 01 00:00:00
TRACK 05 AUDIO
TITLE "Soar Like An Eagle "
PERFORMER "Mandrill"
INDEX 00 04:10:50
FILE "05 – Soar Like An Eagle.wav" WAVE
INDEX 01 00:00:00
TRACK 06 AUDIO
TITLE "Get It While It's Hot "
PERFORMER "Mandrill"
INDEX 00 05:43:52
FILE "06 – Get It While It's Hot.wav" WAVE
INDEX 01 00:00:00
TRACK 07 AUDIO
TITLE "Believe In You "
PERFORMER "Mandrill"
INDEX 00 05:08:10
FILE "07 – Believe In You.wav" WAVE
INDEX 01 00:00:00
TRACK 08 AUDIO
TITLE "Put Your Money Where The Funk Is (Album Mix) "
PERFORMER "Mandrill"
INDEX 00 05:51:15
FILE "08 – Put Your Money Where The Funk Is (Album Mix).wav" WAVE
INDEX 01 00:00:00
TRACK 09 AUDIO
TITLE "Wired For Love (12' Mix) "
PERFORMER "Mandrill"
INDEX 00 05:28:67
FILE "09 – Wired For Love (12' Mix).wav" WAVE
INDEX 01 00:00:00
TRACK 10 AUDIO
TITLE "Put Your Money Where The Funk Is (Instrumental)"
PERFORMER "Mandrill"
INDEX 00 06:02:25
FILE "10 – Put Your Money Where The Funk Is (Instrumental).wav" WAVE
INDEX 01 00:00:00
TRACK 11 AUDIO
TITLE "Put Your Money Where The Funk Is (Radio Mix) "
PERFORMER "Mandrill"
INDEX 00 05:01:60
FILE "11 – Put Your Money Where The Funk Is (Radio Mix).wav" WAVE
INDEX 01 00:00:00
Приватный:
Нет (DHT включён)
Размер:
447.23 Мб (468,949,490 байт) » файлов: 21
Участники:
0 раздают, 0 качают (0 участников всего)
Внешние участники:
--- [ Обновить ]
Никого нет на раздаче - пишите личное сообщение M0p94ok
No seeders - write personal message to M0p94ok
03:13
18
Нет комментариев. Ваш будет первым!