Поиск

(Jazz / Funk / Soul) Tower of Power - East Bay Grease - 1970, FLAC (image+.cue), lossless

(Jazz / Funk / Soul) Tower of Power - East Bay Grease - 1970, FLAC (image+.cue), lossless
Треклист:
Tower of Power - East Bay Grease
Жанр: Jazz / Funk / Soul
Год выпуска диска: 1970
Производитель диска: USA
Аудио кодек: FLAC
Тип рипа: image+.cue
Битрейт аудио: lossless
Продолжительность: 41:32
Трэклист:
1. Knock Yourself Out
2. Social Lubrication
3. The Price
4. Back on the Streets Again
5. The Skunk, the Goose, and the Fly
6. Sparkling in the Sand
Дебютный альбом легендарной группы
 
Log EAC
Exact Audio Copy V0.99 prebeta 5 from 4. May 2009
Отчёт EAC об извлечении, выполненном 16. марта 2010, 20:35
Tower of Power / East Bay Grease
Дисковод: MATSHITAUJDA755 DVD/CDRW Adapter: 1 ID: 0
Режим чтения : Достоверность
Использование точного потока : Да
Отключение кэша аудио : Да
Использование указателей C2 : Нет
Коррекция смещения при чтении : 102
Способность читать области Lead-in и Lead-out : Нет
Заполнение пропущенных сэмплов тишиной : Да
Удаление блоков с тишиной в начале и конце : Нет
При вычислениях CRC использовались нулевые сэмплы : Да
Интерфейс : Встроенный Win32-интерфейс для Win NT/2000
Выходной формат : Пользовательский кодировщик
Выбранный битрейт : 768 kBit/s
Качество : Высокий
Добавление ID3-тэга : Нет
Утилита сжатия : C:\Program Files\Exact Audio Copy\FLAC\FLAC.EXE
Дополнительные параметры : -8 -V %s
TOC извлечённого CD
Трек | Старт | Длительность | Начальный сектор | Конечный сектор
---------------------------------------------------------------------
1 | 0:00.32 | 7:11.73 | 32 | 32429
2 | 7:12.30 | 7:24.60 | 32430 | 65789
3 | 14:37.15 | 6:10.42 | 65790 | 93581
4 | 20:47.57 | 5:51.55 | 93582 | 119961
5 | 26:39.37 | 5:51.28 | 119962 | 146314
6 | 32:30.65 | 9:02.37 | 146315 | 187001
Характеристики диапазона извлечения и сообщения об ошибках
Выбранный диапазон
Имя файла G:\FLACи\Tower of Power - East Bay Grease (1970)\Tower of Power - East Bay Grease.wav
Пиковый уровень 100.0 %
Качество диапазона 100.0 %
CRC теста 45776BBB
CRC копии 45776BBB
Копирование... OK
Ошибок не произошло
AccurateRip: сводка
Трек 1 точность не определена (достоверность 7) [C658C8A8], AccurateRip вернул [30483DB0]
Трек 2 точность не определена (достоверность 7) [2F69AEF0], AccurateRip вернул [7FBC702E]
Трек 3 точность не определена (достоверность 7) [4E24A653], AccurateRip вернул [9E614027]
Трек 4 точность не определена (достоверность 8) [AB7E2966], AccurateRip вернул [A8553560]
Трек 5 точность не определена (достоверность 7) [5E055D9A], AccurateRip вернул [8BDC7580]
Трек 6 точность не определена (достоверность 7) [B65129B6], AccurateRip вернул [97F2E199]
Ни один трек не прошёл проверки на точность
В вашей базе может быть иной вариант штамповки диска
Конец отчёта
Рип с собственного диска
Приватный:
Нет (DHT включён)
Размер:
271.75 Мб (284,947,689 байт) » файлов: 8
Участники:
0 раздают, 0 качают (0 участников всего)
Внешние участники:
5 раздают, 1 качают (6 участников всего) [ Обновить ]
Никого нет на раздаче - пишите личное сообщение M0p94ok
No seeders - write personal message to M0p94ok
03:14
23
Нет комментариев. Ваш будет первым!