Поиск

(Jazz / Funk / Soul) The J.B. Horns - Pee Wee, Fred & Maceo - 1990 (Maceo Parker, Fred Wesley, Pee Wee Ellis), FLAC (image+.cue), lossless

(Jazz / Funk / Soul) The J.B. Horns - Pee Wee, Fred & Maceo - 1990 (Maceo Parker, Fred Wesley, Pee Wee Ellis), FLAC (image+.cue), lossless
Треклист:
The J.B. Horns - Pee Wee, Fred & Maceo
Жанр: Jazz / Funk / Soul
Год выпуска диска: 1990
Производитель диска: USA (Gramavision R2 79462)
Аудио кодек: FLAC
Тип рипа: image+.cue
Битрейт аудио: lossless
Продолжительность: 52:04
Трэклист:
1. Sweet And Tangy
2. Bumpin'
3. Step On Your Watch, Part II
4. Mother's Kitchen
5. Everywhere Is Out Of Town
6. Strut
7. We're Rollin'
8. Let's Play House
9. Blues A' La L.S.
10. Frontal System
11. Slipstream
Personnel:
Pee Wee Ellis (Tenor Sax, Vocal)
Maceo Parker (Alto Sax, Vocal)
Fred Wesley (Trombone, Vocal)
Mark Puricelli (Keyboard)
Jim Payne (Drums)
Bob Greenlee (Bass)
Ernie Lancaster (Guitar)
Bryan Bassett (Guitar)
Yvonne Jackson (Vocal)
Dwight Champagne (Vocal)
 
Log EAC
Exact Audio Copy V0.99 prebeta 5 from 4. May 2009
Отчёт EAC об извлечении, выполненном 16. марта 2010, 23:49
Pee Wee, Fred & Maceo / The J.B. Horns
Дисковод: MATSHITAUJDA755 DVD/CDRW Adapter: 1 ID: 0
Режим чтения : Достоверность
Использование точного потока : Да
Отключение кэша аудио : Да
Использование указателей C2 : Нет
Коррекция смещения при чтении : 102
Способность читать области Lead-in и Lead-out : Нет
Заполнение пропущенных сэмплов тишиной : Да
Удаление блоков с тишиной в начале и конце : Нет
При вычислениях CRC использовались нулевые сэмплы : Да
Интерфейс : Встроенный Win32-интерфейс для Win NT/2000
Выходной формат : Пользовательский кодировщик
Выбранный битрейт : 768 kBit/s
Качество : Высокий
Добавление ID3-тэга : Нет
Утилита сжатия : C:\Program Files\Exact Audio Copy\FLAC\FLAC.EXE
Дополнительные параметры : -8 -V %s
TOC извлечённого CD
Трек | Старт | Длительность | Начальный сектор | Конечный сектор
---------------------------------------------------------------------
1 | 0:00.32 | 5:12.00 | 32 | 23431
2 | 5:12.32 | 3:17.53 | 23432 | 38259
3 | 8:30.10 | 3:40.55 | 38260 | 54814
4 | 12:10.65 | 6:03.55 | 54815 | 82094
5 | 18:14.45 | 5:03.67 | 82095 | 104886
6 | 23:18.37 | 4:17.25 | 104887 | 124186
7 | 27:35.62 | 4:36.03 | 124187 | 144889
8 | 32:11.65 | 4:07.22 | 144890 | 163436
9 | 36:19.12 | 5:17.03 | 163437 | 187214
10 | 41:36.15 | 5:24.57 | 187215 | 211571
11 | 47:00.72 | 5:04.18 | 211572 | 234389
Характеристики диапазона извлечения и сообщения об ошибках
Выбранный диапазон
Имя файла G:\FLACи\Pee Wee, Fred & Maceo - The J.B. Horns (1990)\Pee Wee, Fred & Maceo - The J.B. Horns.wav
Пиковый уровень 100.0 %
Качество диапазона 99.9 %
CRC теста 0D7EC6A2
CRC копии 0D7EC6A2
Копирование... OK
Ошибок не произошло
AccurateRip: сводка
Трек 1 точность не определена (достоверность 2) [635CBE16], AccurateRip вернул [4BED37E4]
Трек 2 точность не определена (достоверность 2) [66CE48D2], AccurateRip вернул [8EB85A86]
Трек 3 точность не определена (достоверность 2) [F095E44F], AccurateRip вернул [756E7E2F]
Трек 4 точность не определена (достоверность 2) [7C510846], AccurateRip вернул [91EF56DA]
Трек 5 точность не определена (достоверность 2) [F9DC6DF3], AccurateRip вернул [3D0EB90D]
Трек 6 точность не определена (достоверность 2) [9A638C9B], AccurateRip вернул [81C73387]
Трек 7 точность не определена (достоверность 2) [79C5EB7F], AccurateRip вернул [CB8C1BA1]
Трек 8 точность не определена (достоверность 2) [A69BEEE7], AccurateRip вернул [EA5C83F3]
Трек 9 точность не определена (достоверность 2) [A75AC3B0], AccurateRip вернул [6FFAE0F2]
Трек 10 точность не определена (достоверность 2) [698C42DE], AccurateRip вернул [A957652C]
Трек 11 точность не определена (достоверность 2) [92975E0E], AccurateRip вернул [BD29025C]
Ни один трек не прошёл проверки на точность
В вашей базе может быть иной вариант штамповки диска
Конец отчёта
Рип с собственного диска
Приватный:
Нет (DHT включён)
Размер:
296.80 Мб (311,218,426 байт) » файлов: 8
Участники:
0 раздают, 0 качают (0 участников всего)
Внешние участники:
5 раздают, 2 качают (7 участников всего) [ Обновить ]
Никого нет на раздаче - пишите личное сообщение M0p94ok
No seeders - write personal message to M0p94ok
03:14
16
Нет комментариев. Ваш будет первым!