Поиск

(Funk, Soul, Jazz) Maze feat. Frankie Beverly - 5 albums - 1977-1985 (rem 1999-2004), FLAC (tracks+.cue), lossless

(Funk, Soul, Jazz) Maze feat. Frankie Beverly - 5 albums - 1977-1985 (rem 1999-2004), FLAC (tracks+.cue), lossless
Треклист:
Maze feat. Frankie Beverly - 5 albums
Жанр: Funk, Soul, Jazz
Год выпуска диска: 1977-1985 (remastered 1999,2004)
Аудио кодек: FLAC
Тип рипа: tracks+.cue
Битрейт аудио: lossless
Продолжительность: 03:33:33
Собственноручные рипы с оригинальных дисков от funky_cat!
 
1999 - (original 1983,1985) - Maze feat. Frankie Beverly - We Are One & Can't Stop the Love (7243 5 20239 2 9)
Продолжительность:46 min 56 sec + 40 min
Can't Stop The Love
1. Maze featuring Frankie Beverly - Back In Stride (7:06)
2. Maze featuring Frankie Beverly - Can't Stop The Love (7:10)
3. Maze featuring Frankie Beverly - Reachin' Down Inside (5:26)
4. Maze featuring Frankie Beverly - Too Many Games (4:58)
5. Maze featuring Frankie Beverly - I Want to Feel I'm Wanted (5:45)
6. Maze featuring Frankie Beverly - Magic (4:50)
7. Maze featuring Frankie Beverly - A Place In My Heart (4:52)
8. Maze featuring Frankie Beverly - Twilight (6:49)
We are one
1. Maze feat. Frankie Beverly - Love is the key (4:28)
2. Maze feat. Frankie Beverly - Right on time (6:09)
3. Maze feat. Frankie Beverly - Your own kind of way (5:14)
4. Maze feat. Frankie Beverly - I wanna thank you (5:26)
5. Maze feat. Frankie Beverly - We are one (6:31)
6. Maze feat. Frankie Beverly - Never let you down (5:22)
7. Maze feat. Frankie Beverly - I love you too much (6:13)
8. Maze feat. Frankie Beverly - Metropolis (0:37)
 
Log EAC CD 1
Exact Audio Copy V0.99 prebeta 5 from 4. May 2009
EAC extraction logfile from 8. March 2010, 20:53
Maze featuring Frankie Beverly / Can't Stop The Love
Used drive : ASUS CB-5216A Adapter: 0 ID: 1
Read mode : Secure
Utilize accurate stream : Yes
Defeat audio cache : Yes
Make use of C2 pointers : No
Read offset correction : 6
Overread into Lead-In and Lead-Out : No
Fill up missing offset samples with silence : Yes
Delete leading and trailing silent blocks : No
Null samples used in CRC calculations : Yes
Used interface : Native Win32 interface for Win NT & 2000
Gap handling : Appended to previous track
Used output format : User Defined Encoder
Selected bitrate : 320 kBit/s
Quality : High
Add ID3 tag : No
Command line compressor : C:\Program Files\FLAC\flac.exe
Additional command line options : -5 -V -T "ARTIST=%a" -T "TITLE=%t" -T "ALBUM=%g" -T "DATE=%y" -T "TRACKNUMBER=%n" -T "GENRE=%m" -T "COMMENT=Ripped By andygrakoff aka yetiisyou" %s
TOC of the extracted CD
Track | Start | Length | Start sector | End sector
---------------------------------------------------------
1 | 0:00.00 | 7:06.05 | 0 | 31954
2 | 7:06.05 | 7:10.32 | 31955 | 64236
3 | 14:16.37 | 5:26.30 | 64237 | 88716
4 | 19:42.67 | 4:58.05 | 88717 | 111071
5 | 24:40.72 | 5:45.73 | 111072 | 137019
6 | 30:26.70 | 4:50.35 | 137020 | 158804
7 | 35:17.30 | 4:52.40 | 158805 | 180744
8 | 40:09.70 | 6:49.42 | 180745 | 211461
Track 1
Filename E:\!Rips\FUNK @ SOUL\Maze feat. Frankie Beverly - We Are One & Can't Stop the Love (7243 5 20239 2 9)\Can't Stop The Love\01 – Back In Stride.wav
Pre-gap length 0:00:02.00
Peak level 98.1 %
Track quality 100.0 %
Test CRC 31F8E628
Copy CRC 31F8E628
Track not present in AccurateRip database
Copy OK
Track 2
Filename E:\!Rips\FUNK @ SOUL\Maze feat. Frankie Beverly - We Are One & Can't Stop the Love (7243 5 20239 2 9)\Can't Stop The Love\02 – Can't Stop The Love.wav
Pre-gap length 0:00:01.84
Peak level 98.3 %
Track quality 100.0 %
Test CRC 28FBAFE4
Copy CRC 28FBAFE4
Track not present in AccurateRip database
Copy OK
Track 3
Filename E:\!Rips\FUNK @ SOUL\Maze feat. Frankie Beverly - We Are One & Can't Stop the Love (7243 5 20239 2 9)\Can't Stop The Love\03 – Reachin' Down Inside.wav
Pre-gap length 0:00:01.86
Peak level 97.5 %
Track quality 99.9 %
Test CRC 24BCB839
Copy CRC 24BCB839
Track not present in AccurateRip database
Copy OK
Track 4
Filename E:\!Rips\FUNK @ SOUL\Maze feat. Frankie Beverly - We Are One & Can't Stop the Love (7243 5 20239 2 9)\Can't Stop The Love\04 – Too Many Games.wav
Pre-gap length 0:00:01.76
Peak level 96.2 %
Track quality 100.0 %
Test CRC 5103845E
Copy CRC 5103845E
Track not present in AccurateRip database
Copy OK
Track 5
Filename E:\!Rips\FUNK @ SOUL\Maze feat. Frankie Beverly - We Are One & Can't Stop the Love (7243 5 20239 2 9)\Can't Stop The Love\05 – I Want to Feel I'm Wanted.wav
Pre-gap length 0:00:01.93
Peak level 95.8 %
Track quality 100.0 %
Test CRC BB625CDF
Copy CRC BB625CDF
Track not present in AccurateRip database
Copy OK
Track 6
Filename E:\!Rips\FUNK @ SOUL\Maze feat. Frankie Beverly - We Are One & Can't Stop the Love (7243 5 20239 2 9)\Can't Stop The Love\06 – Magic.wav
Pre-gap length 0:00:01.80
Peak level 97.8 %
Track quality 100.0 %
Test CRC B3096CAB
Copy CRC B3096CAB
Track not present in AccurateRip database
Copy OK
Track 7
Filename E:\!Rips\FUNK @ SOUL\Maze feat. Frankie Beverly - We Are One & Can't Stop the Love (7243 5 20239 2 9)\Can't Stop The Love\07 – A Place In My Heart.wav
Pre-gap length 0:00:01.80
Peak level 96.6 %
Track quality 99.9 %
Test CRC 609B0145
Copy CRC 609B0145
Track not present in AccurateRip database
Copy OK
Track 8
Filename E:\!Rips\FUNK @ SOUL\Maze feat. Frankie Beverly - We Are One & Can't Stop the Love (7243 5 20239 2 9)\Can't Stop The Love\08 – Twilight.wav
Pre-gap length 0:00:02.00
Peak level 71.7 %
Track quality 100.0 %
Test CRC F9782956
Copy CRC F9782956
Track not present in AccurateRip database
Copy OK
None of the tracks are present in the AccurateRip database
No errors occurred
End of status report
 
CUE
REM GENRE Soul
REM DATE 1999
REM DISCID 6A0B0308
REM COMMENT "ExactAudioCopy v0.99pb5"
PERFORMER "Maze featuring Frankie Beverly"
TITLE "Can't Stop The Love"
FILE "01 – Back In Stride.wav" WAVE
TRACK 01 AUDIO
TITLE "Back In Stride"
PERFORMER "Maze featuring Frankie Beverly"
INDEX 01 00:00:00
TRACK 02 AUDIO
TITLE "Can't Stop The Love"
PERFORMER "Maze featuring Frankie Beverly"
INDEX 00 07:04:17
FILE "02 – Can't Stop The Love.wav" WAVE
INDEX 01 00:00:00
TRACK 03 AUDIO
TITLE "Reachin' Down Inside"
PERFORMER "Maze featuring Frankie Beverly"
INDEX 00 07:08:42
FILE "03 – Reachin' Down Inside.wav" WAVE
INDEX 01 00:00:00
TRACK 04 AUDIO
TITLE "Too Many Games"
PERFORMER "Maze featuring Frankie Beverly"
INDEX 00 05:24:48
FILE "04 – Too Many Games.wav" WAVE
INDEX 01 00:00:00
TRACK 05 AUDIO
TITLE "I Want to Feel I'm Wanted"
PERFORMER "Maze featuring Frankie Beverly"
INDEX 00 04:56:10
FILE "05 – I Want to Feel I'm Wanted.wav" WAVE
INDEX 01 00:00:00
TRACK 06 AUDIO
TITLE "Magic"
PERFORMER "Maze featuring Frankie Beverly"
INDEX 00 05:44:13
FILE "06 – Magic.wav" WAVE
INDEX 01 00:00:00
TRACK 07 AUDIO
TITLE "A Place In My Heart"
PERFORMER "Maze featuring Frankie Beverly"
INDEX 00 04:48:50
FILE "07 – A Place In My Heart.wav" WAVE
INDEX 01 00:00:00
TRACK 08 AUDIO
TITLE "Twilight"
PERFORMER "Maze featuring Frankie Beverly"
INDEX 00 04:50:40
FILE "08 – Twilight.wav" WAVE
INDEX 01 00:00:00
 
Log EAC CD 2
Exact Audio Copy V0.99 prebeta 5 from 4. May 2009
EAC extraction logfile from 8. March 2010, 20:15
Maze feat. Frankie Beverly / We are one
Used drive : ASUS DRW-1608P2 Adapter: 0 ID: 0
Read mode : Secure
Utilize accurate stream : Yes
Defeat audio cache : Yes
Make use of C2 pointers : No
Read offset correction : 48
Overread into Lead-In and Lead-Out : No
Fill up missing offset samples with silence : Yes
Delete leading and trailing silent blocks : No
Null samples used in CRC calculations : Yes
Used interface : Native Win32 interface for Win NT & 2000
Gap handling : Appended to previous track
Used output format : User Defined Encoder
Selected bitrate : 320 kBit/s
Quality : High
Add ID3 tag : No
Command line compressor : C:\Program Files\FLAC\flac.exe
Additional command line options : -5 -V -T "ARTIST=%a" -T "TITLE=%t" -T "ALBUM=%g" -T "DATE=%y" -T "TRACKNUMBER=%n" -T "GENRE=%m" -T "COMMENT=Ripped By andygrakoff aka yetiisyou" %s
TOC of the extracted CD
Track | Start | Length | Start sector | End sector
---------------------------------------------------------
1 | 0:00.00 | 4:28.72 | 0 | 20171
2 | 4:28.72 | 6:09.03 | 20172 | 47849
3 | 10:38.00 | 5:14.05 | 47850 | 71404
4 | 15:52.05 | 5:26.37 | 71405 | 95891
5 | 21:18.42 | 6:31.13 | 95892 | 125229
6 | 27:49.55 | 5:22.60 | 125230 | 149439
7 | 33:12.40 | 6:13.10 | 149440 | 177424
8 | 39:25.50 | 0:37.30 | 177425 | 180229
Track 1
Filename E:\!Rips\FUNK @ SOUL\Maze feat. Frankie Beverly - We Are One & Can't Stop the Love (7243 5 20239 2 9)\We are one\01 – Love is the key.wav
Pre-gap length 0:00:02.00
Peak level 98.1 %
Track quality 99.9 %
Test CRC 0DDA05D4
Copy CRC 0DDA05D4
Track not present in AccurateRip database
Copy OK
Track 2
Filename E:\!Rips\FUNK @ SOUL\Maze feat. Frankie Beverly - We Are One & Can't Stop the Love (7243 5 20239 2 9)\We are one\02 – Right on time.wav
Pre-gap length 0:00:01.76
Peak level 99.2 %
Track quality 100.0 %
Test CRC 73682D21
Copy CRC 73682D21
Track not present in AccurateRip database
Copy OK
Track 3
Filename E:\!Rips\FUNK @ SOUL\Maze feat. Frankie Beverly - We Are One & Can't Stop the Love (7243 5 20239 2 9)\We are one\03 – Your own kind of way.wav
Pre-gap length 0:00:01.97
Peak level 97.9 %
Track quality 100.0 %
Test CRC 06F87420
Copy CRC 06F87420
Track not present in AccurateRip database
Copy OK
Track 4
Filename E:\!Rips\FUNK @ SOUL\Maze feat. Frankie Beverly - We Are One & Can't Stop the Love (7243 5 20239 2 9)\We are one\04 – I wanna thank you.wav
Pre-gap length 0:00:01.93
Peak level 99.3 %
Track quality 100.0 %
Test CRC 8205B173
Copy CRC 8205B173
Track not present in AccurateRip database
Copy OK
Track 5
Filename E:\!Rips\FUNK @ SOUL\Maze feat. Frankie Beverly - We Are One & Can't Stop the Love (7243 5 20239 2 9)\We are one\05 – We are one.wav
Pre-gap length 0:00:01.96
Peak level 98.5 %
Track quality 99.9 %
Test CRC 17DC4EAE
Copy CRC 17DC4EAE
Track not present in AccurateRip database
Copy OK
Track 6
Filename E:\!Rips\FUNK @ SOUL\Maze feat. Frankie Beverly - We Are One & Can't Stop the Love (7243 5 20239 2 9)\We are one\06 – Never let you down.wav
Pre-gap length 0:00:02.20
Peak level 98.5 %
Track quality 100.0 %
Test CRC 16E06BBE
Copy CRC 16E06BBE
Track not present in AccurateRip database
Copy OK
Track 7
Filename E:\!Rips\FUNK @ SOUL\Maze feat. Frankie Beverly - We Are One & Can't Stop the Love (7243 5 20239 2 9)\We are one\07 – I love you too much.wav
Pre-gap length 0:00:02.10
Peak level 99.1 %
Track quality 100.0 %
Test CRC 2BA3D7D6
Copy CRC 2BA3D7D6
Track not present in AccurateRip database
Copy OK
Track 8
Filename E:\!Rips\FUNK @ SOUL\Maze feat. Frankie Beverly - We Are One & Can't Stop the Love (7243 5 20239 2 9)\We are one\08 – Metropolis.wav
Pre-gap length 0:00:01.90
Peak level 98.5 %
Track quality 100.0 %
Test CRC 170B5D84
Copy CRC 170B5D84
Track not present in AccurateRip database
Copy OK
None of the tracks are present in the AccurateRip database
No errors occurred
End of status report
 
CUE
REM GENRE Soul
REM DATE 1983
REM DISCID 6A096308
REM COMMENT "ExactAudioCopy v0.99pb5"
PERFORMER "Maze feat. Frankie Beverly"
TITLE "We are one"
FILE "01 – Love is the key.wav" WAVE
TRACK 01 AUDIO
TITLE "Love is the key"
PERFORMER "Maze feat. Frankie Beverly"
INDEX 01 00:00:00
TRACK 02 AUDIO
TITLE "Right on time"
PERFORMER "Maze feat. Frankie Beverly"
INDEX 00 04:27:15
FILE "02 – Right on time.wav" WAVE
INDEX 01 00:00:00
TRACK 03 AUDIO
TITLE "Your own kind of way"
PERFORMER "Maze feat. Frankie Beverly"
INDEX 00 06:07:05
FILE "03 – Your own kind of way.wav" WAVE
INDEX 01 00:00:00
TRACK 04 AUDIO
TITLE "I wanna thank you"
PERFORMER "Maze feat. Frankie Beverly"
INDEX 00 05:12:10
FILE "04 – I wanna thank you.wav" WAVE
INDEX 01 00:00:00
TRACK 05 AUDIO
TITLE "We are one"
PERFORMER "Maze feat. Frankie Beverly"
INDEX 00 05:24:40
FILE "05 – We are one.wav" WAVE
INDEX 01 00:00:00
TRACK 06 AUDIO
TITLE "Never let you down"
PERFORMER "Maze feat. Frankie Beverly"
INDEX 00 06:28:73
FILE "06 – Never let you down.wav" WAVE
INDEX 01 00:00:00
TRACK 07 AUDIO
TITLE "I love you too much"
PERFORMER "Maze feat. Frankie Beverly"
INDEX 00 05:20:52
FILE "07 – I love you too much.wav" WAVE
INDEX 01 00:00:00
TRACK 08 AUDIO
TITLE "Metropolis"
PERFORMER "Maze feat. Frankie Beverly"
INDEX 00 06:11:17
FILE "08 – Metropolis.wav" WAVE
INDEX 01 00:00:00
 
1999 - (Original 1979,1980) - Maze Featuring Frankie Beverly - Inspiration & Joy And Pain (7243 4 99331 2 5)
Продолжительность: 41:05 + 42:58
Inspiration
1. Maze featuring Frankie Beverly - Lovely Inspiration (5:11)
2. Maze featuring Frankie Beverly - Feel that you're Feelin' (5:31)
3. Maze featuring Frankie Beverly - Call on Me (5:38)
4. Maze featuring Frankie Beverly - Timin' (4:58)
5. Maze featuring Frankie Beverly - Welcome Home (5:10)
6. Maze featuring Frankie Beverly - Woman is a Wonder (7:15)
7. Maze featuring Frankie Beverly - Ain't it Strange (5:26)
8. Maze featuring Frankie Beverly - Lovely Inspiration (instrumental) (1:56)
Joy And Pain
1. Maze Featuring Frankie Beverly - Changing Times (6:34)
2. Maze Featuring Frankie Beverly - The Look In Your Eyes (5:20)
3. Maze Featuring Frankie Beverly - Family (5:08)
4. Maze Featuring Frankie Beverly - Roots (Instrumental) (5:08)
5. Maze Featuring Frankie Beverly - Joy And Pain (7:12)
6. Maze Featuring Frankie Beverly - Southern Girl (6:52)
7. Maze Featuring Frankie Beverly - Happiness (6:44)
 
Log EAC Inspiration
Exact Audio Copy V0.99 prebeta 5 from 4. May 2009
EAC extraction logfile from 10. March 2010, 21:01
Maze featuring Frankie Beverly / Inspiration (Disk 1)
Used drive : ASUS CB-5216A Adapter: 0 ID: 1
Read mode : Secure
Utilize accurate stream : Yes
Defeat audio cache : Yes
Make use of C2 pointers : No
Read offset correction : 6
Overread into Lead-In and Lead-Out : No
Fill up missing offset samples with silence : Yes
Delete leading and trailing silent blocks : No
Null samples used in CRC calculations : Yes
Used interface : Native Win32 interface for Win NT & 2000
Gap handling : Appended to previous track
Used output format : User Defined Encoder
Selected bitrate : 320 kBit/s
Quality : High
Add ID3 tag : No
Command line compressor : C:\Program Files\FLAC\flac.exe
Additional command line options : -5 -V -T "ARTIST=%a" -T "TITLE=%t" -T "ALBUM=%g" -T "DATE=%y" -T "TRACKNUMBER=%n" -T "GENRE=%m" -T "COMMENT=Ripped By andygrakoff aka yetiisyou" %s
TOC of the extracted CD
Track | Start | Length | Start sector | End sector
---------------------------------------------------------
1 | 0:00.00 | 5:11.70 | 0 | 23394
2 | 5:11.70 | 5:31.05 | 23395 | 48224
3 | 10:43.00 | 5:38.02 | 48225 | 73576
4 | 16:21.02 | 4:58.70 | 73577 | 95996
5 | 21:19.72 | 5:10.15 | 95997 | 119261
6 | 26:30.12 | 7:15.63 | 119262 | 151949
7 | 33:46.00 | 5:26.05 | 151950 | 176404
8 | 39:12.05 | 1:56.20 | 176405 | 185124
Track 1
Filename E:\!Rips\FUNK @ SOUL\Maze Featuring Frankie Beverly - Inspiration & Joy And Pain (7243 4 99331 2 5)\CD 1\01 – Lovely Inspiration.wav
Pre-gap length 0:00:02.00
Peak level 99.4 %
Track quality 100.0 %
Test CRC 51461198
Copy CRC 51461198
Accurately ripped (confidence 1) [CA6ABD3F]
Copy OK
Track 2
Filename E:\!Rips\FUNK @ SOUL\Maze Featuring Frankie Beverly - Inspiration & Joy And Pain (7243 4 99331 2 5)\CD 1\02 – Feel that you're Feelin'.wav
Pre-gap length 0:00:01.84
Peak level 97.7 %
Track quality 99.9 %
Test CRC 57C13F5D
Copy CRC 57C13F5D
Accurately ripped (confidence 1) [D30C7C05]
Copy OK
Track 3
Filename E:\!Rips\FUNK @ SOUL\Maze Featuring Frankie Beverly - Inspiration & Joy And Pain (7243 4 99331 2 5)\CD 1\03 – Call on Me.wav
Pre-gap length 0:00:01.93
Peak level 94.8 %
Track quality 99.9 %
Test CRC 0711BE28
Copy CRC 0711BE28
Accurately ripped (confidence 1) [2BC68419]
Copy OK
Track 4
Filename E:\!Rips\FUNK @ SOUL\Maze Featuring Frankie Beverly - Inspiration & Joy And Pain (7243 4 99331 2 5)\CD 1\04 – Timin'.wav
Pre-gap length 0:00:01.89
Peak level 94.6 %
Track quality 100.0 %
Test CRC 8B82DB61
Copy CRC 8B82DB61
Accurately ripped (confidence 1) [FC079BD9]
Copy OK
Track 5
Filename E:\!Rips\FUNK @ SOUL\Maze Featuring Frankie Beverly - Inspiration & Joy And Pain (7243 4 99331 2 5)\CD 1\05 – Welcome Home.wav
Pre-gap length 0:00:01.89
Peak level 95.0 %
Track quality 100.0 %
Test CRC AE8436E7
Copy CRC AE8436E7
Accurately ripped (confidence 1) [9A9C952B]
Copy OK
Track 6
Filename E:\!Rips\FUNK @ SOUL\Maze Featuring Frankie Beverly - Inspiration & Joy And Pain (7243 4 99331 2 5)\CD 1\06 – Woman is a Wonder.wav
Pre-gap length 0:00:01.82
Peak level 92.9 %
Track quality 100.0 %
Test CRC 05A2C8B3
Copy CRC 05A2C8B3
Accurately ripped (confidence 1) [E591ECFF]
Copy OK
Track 7
Filename E:\!Rips\FUNK @ SOUL\Maze Featuring Frankie Beverly - Inspiration & Joy And Pain (7243 4 99331 2 5)\CD 1\07 – Ain't it Strange.wav
Peak level 99.9 %
Track quality 99.9 %
Test CRC 88AF00AF
Copy CRC 88AF00AF
Accurately ripped (confidence 1) [8F9E690A]
Copy OK
Track 8
Filename E:\!Rips\FUNK @ SOUL\Maze Featuring Frankie Beverly - Inspiration & Joy And Pain (7243 4 99331 2 5)\CD 1\08 – Lovely Inspiration (instrumental).wav
Peak level 85.3 %
Track quality 100.0 %
Test CRC B9FFF5EE
Copy CRC B9FFF5EE
Accurately ripped (confidence 1) [738A092E]
Copy OK
All tracks accurately ripped
No errors occurred
End of status report
 
CUE
REM GENRE Soul
REM DISCID 6309A408
REM COMMENT "ExactAudioCopy v0.99pb5"
PERFORMER "Maze featuring Frankie Beverly"
TITLE "Inspiration (Disk 1)"
FILE "01 – Lovely Inspiration.wav" WAVE
TRACK 01 AUDIO
TITLE "Lovely Inspiration"
PERFORMER "Maze featuring Frankie Beverly"
INDEX 01 00:00:00
TRACK 02 AUDIO
TITLE "Feel that you're Feelin'"
PERFORMER "Maze featuring Frankie Beverly"
INDEX 00 05:10:07
FILE "02 – Feel that you're Feelin'.wav" WAVE
INDEX 01 00:00:00
TRACK 03 AUDIO
TITLE "Call on Me"
PERFORMER "Maze featuring Frankie Beverly"
INDEX 00 05:29:10
FILE "03 – Call on Me.wav" WAVE
INDEX 01 00:00:00
TRACK 04 AUDIO
TITLE "Timin'"
PERFORMER "Maze featuring Frankie Beverly"
INDEX 00 05:36:10
FILE "04 – Timin'.wav" WAVE
INDEX 01 00:00:00
TRACK 05 AUDIO
TITLE "Welcome Home"
PERFORMER "Maze featuring Frankie Beverly"
INDEX 00 04:57:03
FILE "05 – Welcome Home.wav" WAVE
INDEX 01 00:00:00
TRACK 06 AUDIO
TITLE "Woman is a Wonder"
PERFORMER "Maze featuring Frankie Beverly"
INDEX 00 05:08:28
FILE "06 – Woman is a Wonder.wav" WAVE
INDEX 01 00:00:00
FILE "07 – Ain't it Strange.wav" WAVE
TRACK 07 AUDIO
TITLE "Ain't it Strange"
PERFORMER "Maze featuring Frankie Beverly"
INDEX 01 00:00:00
FILE "08 – Lovely Inspiration (instrumental).wav" WAVE
TRACK 08 AUDIO
TITLE "Lovely Inspiration (instrumental)"
PERFORMER "Maze featuring Frankie Beverly"
INDEX 01 00:00:00
 
Log EAC Joy And Pain
Exact Audio Copy V0.99 prebeta 5 from 4. May 2009
EAC extraction logfile from 10. March 2010, 21:01
Maze Featuring Frankie Beverly / Joy And Pain
Used drive : ASUS DRW-1608P2 Adapter: 0 ID: 0
Read mode : Secure
Utilize accurate stream : Yes
Defeat audio cache : Yes
Make use of C2 pointers : No
Read offset correction : 48
Overread into Lead-In and Lead-Out : No
Fill up missing offset samples with silence : Yes
Delete leading and trailing silent blocks : No
Null samples used in CRC calculations : Yes
Used interface : Native Win32 interface for Win NT & 2000
Gap handling : Appended to previous track
Used output format : User Defined Encoder
Selected bitrate : 320 kBit/s
Quality : High
Add ID3 tag : No
Command line compressor : C:\Program Files\FLAC\flac.exe
Additional command line options : -5 -V -T "ARTIST=%a" -T "TITLE=%t" -T "ALBUM=%g" -T "DATE=%y" -T "TRACKNUMBER=%n" -T "GENRE=%m" -T "COMMENT=Ripped By andygrakoff aka yetiisyou" %s
TOC of the extracted CD
Track | Start | Length | Start sector | End sector
---------------------------------------------------------
1 | 0:00.00 | 6:34.42 | 0 | 29591
2 | 6:34.42 | 5:20.00 | 29592 | 53591
3 | 11:54.42 | 5:08.40 | 53592 | 76731
4 | 17:03.07 | 5:08.20 | 76732 | 99851
5 | 22:11.27 | 7:12.50 | 99852 | 132301
6 | 29:24.02 | 6:52.08 | 132302 | 163209
7 | 36:16.10 | 6:44.25 | 163210 | 193534
Track 1
Filename E:\!Rips\FUNK @ SOUL\Maze Featuring Frankie Beverly - Inspiration & Joy And Pain (7243 4 99331 2 5)\CD 2\01 – Changing Times.wav
Pre-gap length 0:00:02.00
Peak level 98.0 %
Track quality 100.0 %
Test CRC 82B59EC9
Copy CRC 82B59EC9
Accurately ripped (confidence 1) [D5FFBDAA]
Copy OK
Track 2
Filename E:\!Rips\FUNK @ SOUL\Maze Featuring Frankie Beverly - Inspiration & Joy And Pain (7243 4 99331 2 5)\CD 2\02 – The Look In Your Eyes.wav
Pre-gap length 0:00:01.89
Peak level 98.6 %
Track quality 100.0 %
Test CRC 929B8148
Copy CRC 929B8148
Accurately ripped (confidence 1) [8C030063]
Copy OK
Track 3
Filename E:\!Rips\FUNK @ SOUL\Maze Featuring Frankie Beverly - Inspiration & Joy And Pain (7243 4 99331 2 5)\CD 2\03 – Family.wav
Pre-gap length 0:00:00.49
Peak level 99.6 %
Track quality 100.0 %
Test CRC 74EAE408
Copy CRC 74EAE408
Accurately ripped (confidence 1) [A6302652]
Copy OK
Track 4
Filename E:\!Rips\FUNK @ SOUL\Maze Featuring Frankie Beverly - Inspiration & Joy And Pain (7243 4 99331 2 5)\CD 2\04 – Roots (Instrumental).wav
Pre-gap length 0:00:01.80
Peak level 97.7 %
Track quality 100.0 %
Test CRC E21F80AA
Copy CRC E21F80AA
Accurately ripped (confidence 1) [4717B788]
Copy OK
Track 5
Filename E:\!Rips\FUNK @ SOUL\Maze Featuring Frankie Beverly - Inspiration & Joy And Pain (7243 4 99331 2 5)\CD 2\05 – Joy And Pain.wav
Pre-gap length 0:00:01.86
Peak level 98.3 %
Track quality 99.9 %
Test CRC 10DC5252
Copy CRC 10DC5252
Accurately ripped (confidence 1) [539CC3C4]
Copy OK
Track 6
Filename E:\!Rips\FUNK @ SOUL\Maze Featuring Frankie Beverly - Inspiration & Joy And Pain (7243 4 99331 2 5)\CD 2\06 – Southern Girl.wav
Pre-gap length 0:00:01.80
Peak level 96.7 %
Track quality 100.0 %
Test CRC 454B44D9
Copy CRC 454B44D9
Accurately ripped (confidence 1) [110D1DD3]
Copy OK
Track 7
Filename E:\!Rips\FUNK @ SOUL\Maze Featuring Frankie Beverly - Inspiration & Joy And Pain (7243 4 99331 2 5)\CD 2\07 – Happiness.wav
Pre-gap length 0:00:01.80
Peak level 99.4 %
Track quality 100.0 %
Test CRC 04DB74E4
Copy CRC 04DB74E4
Accurately ripped (confidence 1) [BE49D4B4]
Copy OK
All tracks accurately ripped
No errors occurred
End of status report
 
CUE
REM GENRE Soul
REM DATE 1995
REM DISCID 5A0A1407
REM COMMENT "ExactAudioCopy v0.99pb5"
PERFORMER "Maze Featuring Frankie Beverly"
TITLE "Joy And Pain"
FILE "01 – Changing Times.wav" WAVE
TRACK 01 AUDIO
TITLE "Changing Times"
PERFORMER "Maze Featuring Frankie Beverly"
INDEX 01 00:00:00
TRACK 02 AUDIO
TITLE "The Look In Your Eyes"
PERFORMER "Maze Featuring Frankie Beverly"
INDEX 00 06:32:50
FILE "02 – The Look In Your Eyes.wav" WAVE
INDEX 01 00:00:00
TRACK 03 AUDIO
TITLE "Family"
PERFORMER "Maze Featuring Frankie Beverly"
INDEX 00 05:19:38
FILE "03 – Family.wav" WAVE
INDEX 01 00:00:00
TRACK 04 AUDIO
TITLE "Roots (Instrumental)"
PERFORMER "Maze Featuring Frankie Beverly"
INDEX 00 05:06:55
FILE "04 – Roots (Instrumental).wav" WAVE
INDEX 01 00:00:00
TRACK 05 AUDIO
TITLE "Joy And Pain"
PERFORMER "Maze Featuring Frankie Beverly"
INDEX 00 05:06:30
FILE "05 – Joy And Pain.wav" WAVE
INDEX 01 00:00:00
TRACK 06 AUDIO
TITLE "Southern Girl"
PERFORMER "Maze Featuring Frankie Beverly"
INDEX 00 07:10:65
FILE "06 – Southern Girl.wav" WAVE
INDEX 01 00:00:00
TRACK 07 AUDIO
TITLE "Happiness"
PERFORMER "Maze Featuring Frankie Beverly"
INDEX 00 06:50:23
FILE "07 – Happiness.wav" WAVE
INDEX 01 00:00:00
 
2004 - (original 1977) - Maze Featuring Frankie Beverly - Maze Featuring Frankie Beverly (7243 5 79862 2 9)
Продолжительность: 42:35
1. Maze Featuring Frankie Beverly - Time Is On My side (5:23)
2. Maze Featuring Frankie Beverly - Happy Feelin's (7:10)
3. Maze Featuring Frankie Beverly - Color Blind (3:26)
4. Maze Featuring Frankie Beverly - Lady Of Magic (4:46)
5. Maze Featuring Frankie Beverly - While I'm Alone (4:36)
6. Maze Featuring Frankie Beverly - You (8:38)
7. Maze Featuring Frankie Beverly - Look At california (8:36)
 
Log EAC
Exact Audio Copy V0.99 prebeta 5 from 4. May 2009
EAC extraction logfile from 7. March 2010, 23:25
Maze Featuring Frankie Beverly / Maze Featuring Frankie Beverly
Used drive : ASUS DRW-1608P2 Adapter: 0 ID: 0
Read mode : Secure
Utilize accurate stream : Yes
Defeat audio cache : Yes
Make use of C2 pointers : No
Read offset correction : 48
Overread into Lead-In and Lead-Out : No
Fill up missing offset samples with silence : Yes
Delete leading and trailing silent blocks : No
Null samples used in CRC calculations : Yes
Used interface : Native Win32 interface for Win NT & 2000
Gap handling : Appended to previous track
Used output format : User Defined Encoder
Selected bitrate : 320 kBit/s
Quality : High
Add ID3 tag : No
Command line compressor : C:\Program Files\FLAC\flac.exe
Additional command line options : -5 -V -T "ARTIST=%a" -T "TITLE=%t" -T "ALBUM=%g" -T "DATE=%y" -T "TRACKNUMBER=%n" -T "GENRE=%m" -T "COMMENT=Ripped By andygrakoff aka yetiisyou" %s
TOC of the extracted CD
Track | Start | Length | Start sector | End sector
---------------------------------------------------------
1 | 0:00.36 | 5:23.53 | 36 | 24313
2 | 5:24.14 | 7:10.63 | 24314 | 56626
3 | 12:35.02 | 3:26.02 | 56627 | 72078
4 | 16:01.04 | 4:46.70 | 72079 | 93598
5 | 20:47.74 | 4:36.39 | 93599 | 114337
6 | 25:24.38 | 8:38.74 | 114338 | 153261
7 | 34:03.37 | 8:36.69 | 153262 | 192030
8 | 45:12.31 | 28:45.44 | 203431 | 332849
Track 1
Filename E:\!Rips\FUNK @ SOUL\Maze Featuring Frankie Beverly - Maze Featuring Frankie Beverly (7243 5 79862 2 9)\01 – Time Is On My side.wav
Pre-gap length 0:00:02.48
Peak level 100.0 %
Track quality 100.0 %
Test CRC A3A8CDDA
Copy CRC A3A8CDDA
Track not present in AccurateRip database
Copy OK
Track 2
Filename E:\!Rips\FUNK @ SOUL\Maze Featuring Frankie Beverly - Maze Featuring Frankie Beverly (7243 5 79862 2 9)\02 – Happy Feelin's.wav
Peak level 78.9 %
Track quality 100.0 %
Test CRC DA1E4808
Copy CRC DA1E4808
Track not present in AccurateRip database
Copy OK
Track 3
Filename E:\!Rips\FUNK @ SOUL\Maze Featuring Frankie Beverly - Maze Featuring Frankie Beverly (7243 5 79862 2 9)\03 – Color Blind.wav
Peak level 78.7 %
Track quality 100.0 %
Test CRC FA8423E6
Copy CRC FA8423E6
Track not present in AccurateRip database
Copy OK
Track 4
Filename E:\!Rips\FUNK @ SOUL\Maze Featuring Frankie Beverly - Maze Featuring Frankie Beverly (7243 5 79862 2 9)\04 – Lady Of Magic.wav
Peak level 78.8 %
Track quality 100.0 %
Test CRC D4157C89
Copy CRC D4157C89
Track not present in AccurateRip database
Copy OK
Track 5
Filename E:\!Rips\FUNK @ SOUL\Maze Featuring Frankie Beverly - Maze Featuring Frankie Beverly (7243 5 79862 2 9)\05 – While I'm Alone.wav
Peak level 79.0 %
Track quality 100.0 %
Test CRC 958F9445
Copy CRC 958F9445
Track not present in AccurateRip database
Copy OK
Track 6
Filename E:\!Rips\FUNK @ SOUL\Maze Featuring Frankie Beverly - Maze Featuring Frankie Beverly (7243 5 79862 2 9)\06 – You.wav
Peak level 78.5 %
Track quality 99.9 %
Test CRC 6B93CF19
Copy CRC 6B93CF19
Track not present in AccurateRip database
Copy OK
Track 7
Filename E:\!Rips\FUNK @ SOUL\Maze Featuring Frankie Beverly - Maze Featuring Frankie Beverly (7243 5 79862 2 9)\07 – Look At california.wav
Peak level 78.5 %
Track quality 100.0 %
Test CRC AE1CD157
Copy CRC AE1CD157
Track not present in AccurateRip database
Copy OK
None of the tracks are present in the AccurateRip database
No errors occurred
End of status report
 
CUE
REM GENRE "Funk & Soul"
REM DATE 1977
REM DISCID 69115608
REM COMMENT "ExactAudioCopy v0.99pb5"
PERFORMER "Maze Featuring Frankie Beverly"
TITLE "Maze Featuring Frankie Beverly"
FILE "01 – Time Is On My side.wav" WAVE
TRACK 01 AUDIO
TITLE "Time Is On My side"
PERFORMER "Maze Featuring Frankie Beverly"
PREGAP 00:00:36
INDEX 01 00:00:00
FILE "02 – Happy Feelin's.wav" WAVE
TRACK 02 AUDIO
TITLE "Happy Feelin's"
PERFORMER "Maze Featuring Frankie Beverly"
INDEX 01 00:00:00
FILE "03 – Color Blind.wav" WAVE
TRACK 03 AUDIO
TITLE "Color Blind"
PERFORMER "Maze Featuring Frankie Beverly"
INDEX 01 00:00:00
FILE "04 – Lady Of Magic.wav" WAVE
TRACK 04 AUDIO
TITLE "Lady Of Magic"
PERFORMER "Maze Featuring Frankie Beverly"
INDEX 01 00:00:00
FILE "05 – While I'm Alone.wav" WAVE
TRACK 05 AUDIO
TITLE "While I'm Alone"
PERFORMER "Maze Featuring Frankie Beverly"
INDEX 01 00:00:00
FILE "06 – You.wav" WAVE
TRACK 06 AUDIO
TITLE "You"
PERFORMER "Maze Featuring Frankie Beverly"
INDEX 01 00:00:00
FILE "07 – Look At california.wav" WAVE
TRACK 07 AUDIO
TITLE "Look At california"
PERFORMER "Maze Featuring Frankie Beverly"
INDEX 01 00:00:00
TRACK 08 MODEx/2xxx
TITLE "Track08"
PERFORMER "Maze Featuring Frankie Beverly"
INDEX 00 08:36:69
Приватный:
Нет (DHT включён)
Размер:
1.44 Гб (1,546,469,017 байт) » файлов: 93
Участники:
0 раздают, 0 качают (0 участников всего)
Внешние участники:
3 раздают, 1 качают (4 участников всего) [ Обновить ]
Никого нет на раздаче - пишите личное сообщение M0p94ok
No seeders - write personal message to M0p94ok
03:15
17
Нет комментариев. Ваш будет первым!