Поиск

(Acid Jazz, Downtempo,Soul) Me'Shell NdegeOcello - Bitter (9362 47439-2) - 1999, FLAC (tracks+.cue), lossless

(Acid Jazz, Downtempo,Soul) Me'Shell NdegeOcello - Bitter (9362 47439-2) - 1999, FLAC (tracks+.cue), lossless
Треклист:
Me'Shell NdegeOcello - Bitter
Жанр: Acid Jazz, Downtempo,Soul
Год выпуска диска: 1999
Производитель диска: Maverick
Аудио кодек: FLAC
Тип рипа: tracks+.cue
Битрейт аудио: lossless
Продолжительность: 00:47:37

1. Me'Shell NdegeOcello - Adam (2:24)
2. Me'Shell NdegeOcello - Fool Of Me (3:30)
3. Me'Shell NdegeOcello - Faithful (4:46)
4. Me'Shell NdegeOcello - Satisfy (4:05)
5. Me'Shell NdegeOcello - Bitter (4:15)
6. Me'Shell NdegeOcello - May This Be Love (5:16)
7. Me'Shell NdegeOcello - Sincerity (5:29)
8. Me'Shell NdegeOcello - Loyalty (4:24)
9. Me'Shell NdegeOcello - Beautiful (2:44)
10. Me'Shell NdegeOcello - Eve (1:23)
11. Me'Shell NdegeOcello - Wasted Time (4:55)
12. Me'Shell NdegeOcello - Grace (4:26)
Собственноручный рип с оригинального диска от funky_cat!
 
Log EAC
Exact Audio Copy V0.99 prebeta 5 from 4. May 2009
Exact Audio Copy V0.99 prebeta 5 from 4. May 2009
EAC extraction logfile from 7. March 2010, 12:59
Me'Shell NdegeOcello / Bitter
Used drive : ASUS CB-5216A Adapter: 0 ID: 1
Read mode : Secure
Utilize accurate stream : Yes
Defeat audio cache : Yes
Make use of C2 pointers : No
Read offset correction : 6
Overread into Lead-In and Lead-Out : No
Fill up missing offset samples with silence : Yes
Delete leading and trailing silent blocks : No
Null samples used in CRC calculations : Yes
Used interface : Native Win32 interface for Win NT & 2000
Gap handling : Appended to previous track
Used output format : User Defined Encoder
Selected bitrate : 320 kBit/s
Quality : High
Add ID3 tag : No
Command line compressor : C:\Program Files\FLAC\flac.exe
Additional command line options : -5 -V -T "ARTIST=%a" -T "TITLE=%t" -T "ALBUM=%g" -T "DATE=%y" -T "TRACKNUMBER=%n" -T "GENRE=%m" -T "COMMENT=Ripped By andygrakoff aka yetiisyou" %s
TOC of the extracted CD
Track | Start | Length | Start sector | End sector
---------------------------------------------------------
1 | 0:00.00 | 2:24.02 | 0 | 10801
2 | 2:24.02 | 3:30.30 | 10802 | 26581
3 | 5:54.32 | 4:46.08 | 26582 | 48039
4 | 10:40.40 | 4:05.12 | 48040 | 66426
5 | 14:45.52 | 4:15.00 | 66427 | 85551
6 | 19:00.52 | 5:16.60 | 85552 | 109311
7 | 24:17.37 | 5:29.50 | 109312 | 134036
8 | 29:47.12 | 4:24.13 | 134037 | 153849
9 | 34:11.25 | 2:44.40 | 153850 | 166189
10 | 36:55.65 | 1:23.17 | 166190 | 172431
11 | 38:19.07 | 4:55.08 | 172432 | 194564
12 | 43:14.15 | 4:26.60 | 194565 | 214574
Track 1
Filename E:\!Rips\FUNK @ SOUL\Me'Shell NdegeOcello - Bitter (9362 47439-2)\01 – Adam.wav
Pre-gap length 0:00:02.00
Peak level 99.7 %
Track quality 100.0 %
Test CRC 2D166553
Copy CRC 2D166553
Accurately ripped (confidence 23) [238C28F6]
Copy OK
Track 2
Filename E:\!Rips\FUNK @ SOUL\Me'Shell NdegeOcello - Bitter (9362 47439-2)\02 – Fool Of Me.wav
Peak level 99.8 %
Track quality 100.0 %
Test CRC 8174F816
Copy CRC 8174F816
Accurately ripped (confidence 24) [D33C6E88]
Copy OK
Track 3
Filename E:\!Rips\FUNK @ SOUL\Me'Shell NdegeOcello - Bitter (9362 47439-2)\03 – Faithful.wav
Peak level 99.8 %
Track quality 100.0 %
Test CRC A9F1DA5C
Copy CRC A9F1DA5C
Accurately ripped (confidence 23) [FA5275E5]
Copy OK
Track 4
Filename E:\!Rips\FUNK @ SOUL\Me'Shell NdegeOcello - Bitter (9362 47439-2)\04 – Satisfy.wav
Peak level 99.8 %
Track quality 100.0 %
Test CRC F42692E0
Copy CRC F42692E0
Accurately ripped (confidence 23) [68D9BC2B]
Copy OK
Track 5
Filename E:\!Rips\FUNK @ SOUL\Me'Shell NdegeOcello - Bitter (9362 47439-2)\05 – Bitter.wav
Peak level 99.8 %
Track quality 99.9 %
Test CRC D08D460E
Copy CRC D08D460E
Accurately ripped (confidence 23) [5238875E]
Copy OK
Track 6
Filename E:\!Rips\FUNK @ SOUL\Me'Shell NdegeOcello - Bitter (9362 47439-2)\06 – May This Be Love.wav
Peak level 88.5 %
Track quality 99.9 %
Test CRC 0046AC4A
Copy CRC 0046AC4A
Accurately ripped (confidence 23) [597D5184]
Copy OK
Track 7
Filename E:\!Rips\FUNK @ SOUL\Me'Shell NdegeOcello - Bitter (9362 47439-2)\07 – Sincerity.wav
Peak level 99.9 %
Track quality 100.0 %
Test CRC 1F1C2D06
Copy CRC 1F1C2D06
Accurately ripped (confidence 22) [F8A19D87]
Copy OK
Track 8
Filename E:\!Rips\FUNK @ SOUL\Me'Shell NdegeOcello - Bitter (9362 47439-2)\08 – Loyalty.wav
Peak level 91.3 %
Track quality 100.0 %
Test CRC 9752F7CE
Copy CRC 9752F7CE
Accurately ripped (confidence 22) [AB5B56EE]
Copy OK
Track 9
Filename E:\!Rips\FUNK @ SOUL\Me'Shell NdegeOcello - Bitter (9362 47439-2)\09 – Beautiful.wav
Pre-gap length 0:00:03.20
Peak level 90.9 %
Track quality 100.0 %
Test CRC 96817B76
Copy CRC 96817B76
Accurately ripped (confidence 23) [ADCA8595]
Copy OK
Track 10
Filename E:\!Rips\FUNK @ SOUL\Me'Shell NdegeOcello - Bitter (9362 47439-2)\10 – Eve.wav
Pre-gap length 0:00:00.57
Peak level 94.2 %
Track quality 100.0 %
Test CRC E9C865E5
Copy CRC E9C865E5
Accurately ripped (confidence 24) [D8FB7906]
Copy OK
Track 11
Filename E:\!Rips\FUNK @ SOUL\Me'Shell NdegeOcello - Bitter (9362 47439-2)\11 – Wasted Time.wav
Peak level 99.9 %
Track quality 100.0 %
Test CRC ABFC5BB6
Copy CRC ABFC5BB6
Accurately ripped (confidence 24) [42D101DC]
Copy OK
Track 12
Filename E:\!Rips\FUNK @ SOUL\Me'Shell NdegeOcello - Bitter (9362 47439-2)\12 – Grace.wav
Peak level 95.4 %
Track quality 100.0 %
Test CRC 48B2E14E
Copy CRC 48B2E14E
Accurately ripped (confidence 22) [6501BB84]
Copy OK
All tracks accurately ripped
No errors occurred
End of status report
 
CUE
REM GENRE Blues
REM DATE 1999
REM DISCID A40B2D0C
REM COMMENT "ExactAudioCopy v0.99pb5"
PERFORMER "Me'Shell NdegeOcello"
TITLE "Bitter"
FILE "01 – Adam.wav" WAVE
TRACK 01 AUDIO
TITLE "Adam"
PERFORMER "Me'Shell NdegeOcello"
INDEX 01 00:00:00
FILE "02 – Fool Of Me.wav" WAVE
TRACK 02 AUDIO
TITLE "Fool Of Me"
PERFORMER "Me'Shell NdegeOcello"
INDEX 01 00:00:00
FILE "03 – Faithful.wav" WAVE
TRACK 03 AUDIO
TITLE "Faithful"
PERFORMER "Me'Shell NdegeOcello"
INDEX 01 00:00:00
FILE "04 – Satisfy.wav" WAVE
TRACK 04 AUDIO
TITLE "Satisfy"
PERFORMER "Me'Shell NdegeOcello"
INDEX 01 00:00:00
FILE "05 – Bitter.wav" WAVE
TRACK 05 AUDIO
TITLE "Bitter"
PERFORMER "Me'Shell NdegeOcello"
INDEX 01 00:00:00
FILE "06 – May This Be Love.wav" WAVE
TRACK 06 AUDIO
TITLE "May This Be Love"
PERFORMER "Me'Shell NdegeOcello"
INDEX 01 00:00:00
FILE "07 – Sincerity.wav" WAVE
TRACK 07 AUDIO
TITLE "Sincerity"
PERFORMER "Me'Shell NdegeOcello"
INDEX 01 00:00:00
FILE "08 – Loyalty.wav" WAVE
TRACK 08 AUDIO
TITLE "Loyalty"
PERFORMER "Me'Shell NdegeOcello"
INDEX 01 00:00:00
TRACK 09 AUDIO
TITLE "Beautiful"
PERFORMER "Me'Shell NdegeOcello"
INDEX 00 04:20:73
FILE "09 – Beautiful.wav" WAVE
INDEX 01 00:00:00
TRACK 10 AUDIO
TITLE "Eve"
PERFORMER "Me'Shell NdegeOcello"
INDEX 00 02:43:72
FILE "10 – Eve.wav" WAVE
INDEX 01 00:00:00
FILE "11 – Wasted Time.wav" WAVE
TRACK 11 AUDIO
TITLE "Wasted Time"
PERFORMER "Me'Shell NdegeOcello"
INDEX 01 00:00:00
FILE "12 – Grace.wav" WAVE
TRACK 12 AUDIO
TITLE "Grace"
PERFORMER "Me'Shell NdegeOcello"
INDEX 01 00:00:00
Приватный:
Нет (DHT включён)
Размер:
325.22 Мб (341,014,735 байт) » файлов: 28
Участники:
0 раздают, 0 качают (0 участников всего)
Внешние участники:
3 раздают, 1 качают (4 участников всего) [ Обновить ]
Нет сидеров - пишите личное сообщение M0p94ok. Не нравятся торренты? Участники группы Pro-jazz Club могут заказать прямую ссылку на скачивание из облака.
No seeders - write a personal message to M0p94ok. Don't like torrents? Members of Pro-jazz Club group can order a direct download link from the cloud.
03:16
19
Нет комментариев. Ваш будет первым!